Loading...
Error

Среди живущих / Aux Yeux Des Vivants (Александр Бустильо, Жюльен Мори) [2014 г., Ужасы, Триллер, DVDRip] VO (RUS, ХиХиДок) + Original (FRA)

Статистика раздачи
Размер:  1,46 GB   |    Зарегистрирован:  2 года   |    Скачан:  19 раз

Полного источника не было: 1 год 4 месяца

Сидов:  0  |  0 KB/s  ]   Личеров:  0  |  0 KB/s  ]

* - сиды/пиры с внешних источников

   
 
Автор Сообщение

Ведьмочка Пол:Жен

14-Ноя-2014 04:06

Среди живущих / Aux Yeux Des Vivants


Страна: Франция
Год выпуска: 2014
Жанр: Ужасы, Триллер
Продолжительность: 01:27:49
Режиссёр: Александр Бустильо, Жюльен Мори
В ролях: Энн Маривин, Тео Фернандез, Франсис Рено, Захари Шассерьо, Дэмиен Фердель, Фабьен Жегуде, Николас Жиро, Беатрис Даль, Хлоя Куллу, Доминик Фрот
Сюжет фильма:
Фильм о трех школьниках, которые решили прогулять уроки ради того, чтобы побродить по заброшенному парку аттракционов. Посреди этой разрухи детишки неожиданно увидели мужчину в маске, который тащил за собой женщину на цепи. К несчастью для ребят, незнакомец их тоже увидел.

Озвучивание:
  • Любительский, Одноголосный, Русский [ХиХиДок]
  • Оригинал, Французский

Качество видео: DVDRip
Формат: AVI

Видео: XviD, 720x304 (2.35:1), 25.000 fps, ~1826 Кбит/сек
Аудио #1: AC-3, 192 Кбит/сек, 2 Канала, 48.0 КГц
Аудио #2: AC-3, 448 Кбит/сек, 6 Каналов, 48.0 КГц



General
Complete name : \Among.the.Living.2014.DVDRip.avi
Format : AVI
Format/Info : Audio Video Interleave
File size : 1.46 GiB
Duration : 1h 24mn
Overall bit rate : 2 480 Kbps
Writing application : VirtualDubMod 1.5.10.2 (build 2542/release)
Writing library : VirtualDubMod build 2542/release

Video
ID : 0
Format : MPEG-4 Visual
Format profile : Advanced Simple@L5
Format settings, BVOP : 2
Format settings, QPel : No
Format settings, GMC : No warppoints
Format settings, Matrix : Default (MPEG)
Codec ID : XVID
Codec ID/Hint : XviD
Duration : 1h 24mn
Bit rate : 1 826 Kbps
Width : 720 pixels
Height : 304 pixels
Display aspect ratio : 2.35:1
Frame rate : 25.000 fps
Color space : YUV
Chroma subsampling : 4:2:0
Bit depth : 8 bits
Scan type : Progressive
Compression mode : Lossy
Bits/(Pixel*Frame) : 0.334
Stream size : 1.08 GiB (74%)
Writing library : XviD 1.2.1 (UTC 2008-12-04)

Audio #1
ID : 1
Format : AC-3
Format/Info : Audio Coding 3
Mode extension : CM (complete main)
Format settings, Endianness : Big
Codec ID : 2000
Duration : 1h 24mn
Bit rate mode : Constant
Bit rate : 192 Kbps
Channel(s) : 2 channels
Channel positions : Front: L R
Sampling rate : 48.0 KHz
Bit depth : 16 bits
Compression mode : Lossy
Stream size : 116 MiB (8%)
Alignment : Split accross interleaves
Interleave, duration : 40 ms (1.00 video frame)
Interleave, preload duration : 500 ms

Audio #2
ID : 2
Format : AC-3
Format/Info : Audio Coding 3
Mode extension : CM (complete main)
Format settings, Endianness : Big
Codec ID : 2000
Duration : 1h 24mn
Bit rate mode : Constant
Bit rate : 448 Kbps
Channel(s) : 6 channels
Channel positions : Front: L C R, Side: L R, LFE
Sampling rate : 48.0 KHz
Bit depth : 16 bits
Compression mode : Lossy
Stream size : 270 MiB (18%)
Alignment : Split accross interleaves
Interleave, duration : 40 ms (1.00 video frame)
Interleave, preload duration : 500 ms


picpicpic
Для увеличения картинки щелкните мышкой по превью

Этот торрент недоступен для скачивания без регистрации, однако доступен по публичной magnet-ссылке (источники с публичных трекеров). Перед использованием ссылки прочтите, пожалуйста Пользовательское соглашение, а также как можно дольше оставайтесь на раздаче! Для того, чтобы скачать сам торрент-файл (который видит больше источников), а также для того, чтобы поблагодарить релизера, вам необходимо зарегистрироваться. Если регистрироваться лень - вы можете также попробовать скачать релиз по нашим партнерским ссылкам ниже.

[underverse.su].t46239.torrent
Трекер: Зарегистрирован   [ 14.11.2014 04:06 ]  

Статус: проверено (by Ведьмочка at 14.11.2014 04:06)
Поблагодарили: пока никто не поблагодарил...
Тип торрента: публичный - доступные источники с открытых трекеров: 
Размер: 1,46 GB (занимает 0,33 DVDR, для записи нужно 1 болванка DVDR/RW)
 
 
Похожие темы
Форум Тема Автор Торрент Отв. Посл. сооб.
Зарубежное кино [HDDVDRip / BDRip / WEB-DL / HDTV 1080/720р] Среди живущих / Aux Yeux Des Vivants (Александр Бустильо, Жюльен Мори) [2014 г., Ужасы, Триллер, BDRip 1080p] VO (RUS, ХиХиДок) + Original (FRA) + Subs (ENG) Ведьмочка
1 | 2

0 | 462

7

14.11.2014 03:54

Зарубежное кино [HDDVDRip / BDRip / WEB-DL / HDTV 1080/720р] Среди живущих / Aux Yeux Des Vivants (Александр Бустильо, Жюльен Мори) [2014 г., Ужасы, Триллер, BDRip 720p] VO (RUS, ХиХиДок) + Original (FRA) + Subs (ENG) Ведьмочка
2 | 1

0 | 502

6

14.11.2014 04:01


Яндекс.Метрика powered by Sphinx


В Н И М А Н И Е
Сайт не распространяет и не хранит электронные версии произведений, а лишь бесплатно и без коммерческой выгоды (не требуя взамен платы,
SMS и т.д.) предоставляет доступ к создаваемому пользователями каталогу ссылок на торрент-файлы, которые содержат только списки хеш-сумм.
Убедительная просьба с жалобами обращаться напрямую к пользователю, разместившему торрент файл.

Вверх