Loading...
Error

Укради мою жену / Life of Crime (Дэниэл Шехтер) [2013 г., Комедия, Криминал, BDRip-AVC] Dub (RUS, Лицензия) + Subs (ENG)

Статистика раздачи
Размер:  1,46 GB   |    Зарегистрирован:  2 года 4 месяца   |    Скачан:  32 раза

Полного источника не было: 1 год 2 месяца

Сидов:  0  |  0 KB/s  ]   Личеров:  0  |  0 KB/s  ]

* - сиды/пиры с внешних источников

   
 
Автор Сообщение

Ведьмочка Пол:Жен

14-Ноя-2014 03:24

Укради мою жену / Life of Crime
«Right target. Wrong woman»


Страна: США
Год выпуска: 2013
Жанр: Комедия, Криминал
Продолжительность: 01:40:49
Режиссёр: Дэниэл Шехтер
В ролях: Дженнифер Энистон, Мос Деф, Айла Фишер, Уилл Форте, Марк Бун Джуниор, Тим Роббинс, Джон Хоукс, Клеа Льюис, Чарли Тахэн, Кевин Корригэн
Сюжет фильма:
Орделл Робб и Луис Гарра познакомились за решеткой, сев за одинаковые преступления — угон. Теперь они на свободе и готовят крупное дело: похищение жены детройтского девелопера с целью получения выкупа. Но им и в голову не могло прийти, что бедный, как церковная мышь, супруг не захочет вызволять благоверную. И тогда наступает время для запасного плана: настоящего убийства не без помощи жаждущей мести домохозяйки.

Озвучивание:
  • Дублированный, Русский [Лицензия]

Качество видео: BDRip-AVC
Формат: MKV

Видео: AVC, 1008x422 (2.40:1), 23.976 fps, ~1626 Кбит/сек
Аудио: AC-3, 448 Кбит/сек, 6 Каналов, 48.0 КГц

Субтитры #1: UTF-8 [Английские, Полные]
Субтитры #2: UTF-8 [Английские, SDH]

Rip by:



General
Unique ID : 181880308929575012405128895236799698262 (0x88D4DF924E13C49C86AD6A4EBA639556)
Complete name : \Ukradi.Moyu.Zhenu.2014.RUS.BDRip.x264.-HELLYWOOD.mkv
Format : Matroska
Format version : Version 4 / Version 2
File size : 1.46 GiB
Duration : 1h 40mn
Overall bit rate : 2 075 Kbps
Movie name : Life of Crime (2013) - HELLYWOOD
Encoded date : UTC 2014-11-13 17:47:57
Writing application : mkvmerge v5.9.0 ('On The Loose') built on Dec 15 2012 16:39:58
Writing library : libebml v1.3.0 + libmatroska v1.4.0

Video
ID : 1
Format : AVC
Format/Info : Advanced Video Codec
Format profile : High@L4.1
Format settings, CABAC : Yes
Format settings, ReFrames : 11 frames
Codec ID : V_MPEG4/ISO/AVC
Duration : 1h 40mn
Bit rate : 1 626 Kbps
Width : 1 008 pixels
Height : 422 pixels
Display aspect ratio : 2.40:1
Frame rate mode : Constant
Frame rate : 23.976 fps
Color space : YUV
Chroma subsampling : 4:2:0
Bit depth : 8 bits
Scan type : Progressive
Bits/(Pixel*Frame) : 0.159
Stream size : 1.12 GiB (76%)
Title : potroks
Writing library : x264 core 130 r2273 b3065e6
Encoding settings : cabac=1 / ref=11 / deblock=1:-2:-2 / analyse=0x3:0x133 / me=umh / subme=11 / psy=1 / psy_rd=1.08:0.05 / mixed_ref=1 / me_range=48 / chroma_me=1 / trellis=2 / 8x8dct=1 / cqm=0 / deadzone=21,11 / fast_pskip=0 / chroma_qp_offset=-3 / threads=6 / lookahead_threads=1 / sliced_threads=0 / nr=0 / decimate=0 / interlaced=0 / bluray_compat=0 / constrained_intra=0 / bframes=12 / b_pyramid=2 / b_adapt=2 / b_bias=0 / direct=3 / weightb=1 / open_gop=0 / weightp=2 / keyint=250 / keyint_min=23 / scenecut=40 / intra_refresh=0 / rc_lookahead=60 / rc=2pass / mbtree=0 / bitrate=1626 / ratetol=1.0 / qcomp=0.72 / qpmin=0 / qpmax=69 / qpstep=4 / cplxblur=20.0 / qblur=0.5 / vbv_maxrate=52000 / vbv_bufsize=62500 / nal_hrd=none / ip_ratio=1.30 / pb_ratio=1.25 / aq=1:0.70
Language : English
Default : Yes
Forced : No

Audio
ID : 2
Format : AC-3
Format/Info : Audio Coding 3
Mode extension : CM (complete main)
Format settings, Endianness : Big
Codec ID : A_AC3
Duration : 1h 40mn
Bit rate mode : Constant
Bit rate : 448 Kbps
Channel(s) : 6 channels
Channel positions : Front: L C R, Side: L R, LFE
Sampling rate : 48.0 KHz
Bit depth : 16 bits
Compression mode : Lossy
Stream size : 323 MiB (22%)
Title : Dub | DD 5.1 @ 448 kbps
Language : Russian
Default : Yes
Forced : Yes

Text #1
ID : 3
Format : UTF-8
Codec ID : S_TEXT/UTF8
Codec ID/Info : UTF-8 Plain Text
Title : Full
Language : English
Default : No
Forced : No

Text #2
ID : 4
Format : UTF-8
Codec ID : S_TEXT/UTF8
Codec ID/Info : UTF-8 Plain Text
Title : SDH
Language : English
Default : No
Forced : No

Menu
00:00:00.000 : en:00:00:00.000
00:06:22.465 : en:00:06:22.465
00:12:52.438 : en:00:12:52.438
00:19:13.110 : en:00:19:13.110
00:26:24.750 : en:00:26:24.750
00:32:54.347 : en:00:32:54.347
00:38:40.818 : en:00:38:40.818
00:44:30.418 : en:00:44:30.418
00:52:46.455 : en:00:52:46.455
00:59:22.476 : en:00:59:22.476
01:03:57.500 : en:01:03:57.500
01:12:24.674 : en:01:12:24.674
01:17:48.122 : en:01:17:48.122
01:25:22.659 : en:01:25:22.659
01:30:31.009 : en:01:30:31.009
01:34:57.567 : en:01:34:57.567


picpicpic
Для увеличения картинки щелкните мышкой по превью

Этот торрент недоступен для скачивания без регистрации, однако доступен по публичной magnet-ссылке (источники с публичных трекеров). Перед использованием ссылки прочтите, пожалуйста Пользовательское соглашение, а также как можно дольше оставайтесь на раздаче! Для того, чтобы скачать сам торрент-файл (который видит больше источников), а также для того, чтобы поблагодарить релизера, вам необходимо зарегистрироваться. Если регистрироваться лень - вы можете также попробовать скачать релиз по нашим партнерским ссылкам ниже.

[underverse.su].t46236.torrent
Трекер: Зарегистрирован   [ 14.11.2014 03:24 ]  

Статус: проверено (by Ведьмочка at 14.11.2014 03:24)
Поблагодарили: 2 человека
Тип торрента: публичный - доступные источники с открытых трекеров: 
Размер: 1,46 GB (занимает 0,33 DVDR, для записи нужно 1 болванка DVDR/RW)
 
 
Похожие темы
Форум Тема Автор Торрент Отв. Посл. сооб.
Зарубежное кино [DVDRip, Low-Res HDRip, и т.д.] Укради мою жену / Life of Crime (Дэниэл Шехтер) [2013 г., Комедия, Криминал, HDRip] MVO (RUS, Paradox) Ведьмочка
14 | 0

0 | 776

20

19.10.2014 20:58

Зарубежное кино [DVDRip, Low-Res HDRip, и т.д.] Укради мою жену / Life of Crime (Дэниэл Шехтер) [2013 г., Комедия, Криминал, HDRip] Dub (RUS, Лицензия) Ведьмочка
83 | 0

0 | 786

32

12.11.2014 09:49

Зарубежное кино [DVDRip, Low-Res HDRip, и т.д.] Укради мою жену / Life of Crime (Дэниэл Шехтер / Daniel Schechter) [2013 г., криминал, драма, комедия, BDRip-AVC] Dub + Original (Eng) + Sub (Eng) 90ytr90
14 | 0

0 | 451

7

21.11.2014 19:19

Зарубежное кино [HDDVDRip / BDRip / WEB-DL / HDTV 1080/720р] Укради мою жену / Life of Crime (Дэниэл Шехтер) [2013 г., Комедия, Криминал, BDRip 1080p] MVO (RUS, Paradox) + Original (ENG) + Subs (ENG) Ведьмочка
2 | 1

0 | 783

6

18.10.2014 06:18

Зарубежное кино [HDDVDRip / BDRip / WEB-DL / HDTV 1080/720р] Укради мою жену / Life of Crime (Дэниэл Шехтер) [2013 г., Комедия, Криминал, BDRip 720p] MVO (RUS, Paradox) + Original (ENG) + Subs (RUS, ENG) Ведьмочка
2 | 0

0 | 800

4

19.10.2014 09:10

T Зарубежное кино [HDDVDRip / BDRip / WEB-DL / HDTV 1080/720р] Укради мою жену / Life of Crime (Дэниэл Шехтер) [2013 г., Комедия, Криминал, BDRip 720p] Dub (RUS, iTunes Russia) + Original (ENG) Ведьмочка
0 | 0

0 | 739

12

01.11.2014 04:42

Зарубежное кино [HDDVDRip / BDRip / WEB-DL / HDTV 1080/720р] Укради мою жену / Life of Crime (Дэниэл Шехтер) [2013 г., Комедия, Криминал, BDRip 720p] Dub (RUS, Лицензия) Ведьмочка
2 | 0

0 | 615

8

12.11.2014 07:27

Зарубежное кино [HDDVDRip / BDRip / WEB-DL / HDTV 1080/720р] Укради мою жену / Life of Crime (Дэниэл Шехтер) [2013 г., Комедия, Криминал, BDRip 1080p] 2-Dub (RUS, Лицензия) + Original (ENG) + Subs (ENG) Ведьмочка
0 | 1

0 | 620

8

12.11.2014 09:40


Яндекс.Метрика powered by Sphinx


В Н И М А Н И Е
Сайт не распространяет и не хранит электронные версии произведений, а лишь бесплатно и без коммерческой выгоды (не требуя взамен платы,
SMS и т.д.) предоставляет доступ к создаваемому пользователями каталогу ссылок на торрент-файлы, которые содержат только списки хеш-сумм.
Убедительная просьба с жалобами обращаться напрямую к пользователю, разместившему торрент файл.

Вверх