Loading...
Error

Забава / Это праздник / It's Entertainment (Фархад, Фархад-Саджид) [2014 г., Комедия, BDRip] DVO (RUS, R.A.I.M. & VictorY)

Статистика раздачи
Размер:  1,46 GB   |    Зарегистрирован:  2 года   |    Скачан:  15 раз

Полного источника не было: 1 год 10 месяцев

Сидов:  0  |  0 KB/s  ]   Личеров:  0  |  0 KB/s  ]

* - сиды/пиры с внешних источников

   
 
Автор Сообщение

Ведьмочка Пол:Жен

14-Ноя-2014 02:59

Забава / Это праздник / It's Entertainment


Страна: Индия
Год выпуска: 2014
Жанр: Комедия
Продолжительность: 02:19:03
Режиссёр: Фархад, Фархад-Саджид
В ролях: Акшай Кумар, Таманна Бхатия, Сону Суд, Пракаш Радж, Джонни Левер, Митхун Чакраборти, Ритеш Дешмукх, Шреяс Талпаде, Кришна Абхишек, Враджеш Хирджи, Даршан Джаривала, Дэмиэн Мевис, Гарги Патель
Сюжет фильма:
Ахил готов браться за любую работу, чтобы заработать себе на жизнь и оплатить лечение отца. Но вот однажды Ахил узнает, что его настоящий отец совершенно другой человек, никто иной, как один из самых богатых людей, торговец бриллиантами Панналал Джохри, который когда-то обманул его мать. Взбудораженный этой новостью, Ахил спешит поделиться ей со своим приятелем Кришной, а тот в ответ сообщает ему, что мультимиллионер и магнат Панналал Джохри умер…

Озвучивание:
  • Любительский, Двухголосный, Русский [R.A.I.M. & VictorY]

Качество видео: BDRip
Формат: AVI

Видео: XviD, 720x304 (2.35:1), 23.976 fps, ~1300 Кбит/сек
Аудио: AC-3, 192 Кбит/сек, 2 Канала, 48.0 КГц



General
Complete name : \It's Entertainment (2014) L 2.avi
Format : AVI
Format/Info : Audio Video Interleave
File size : 1.46 GiB
Duration : 2h 19mn
Overall bit rate : 1 501 Kbps
Writing application : VirtualDubMod 1.5.10.3 | www.virtualdub-fr.org || (build 2550/release)

Video
ID : 0
Format : MPEG-4 Visual
Format profile : Advanced Simple@L5
Format settings, BVOP : 1
Format settings, QPel : No
Format settings, GMC : No warppoints
Format settings, Matrix : Default (H.263)
Codec ID : XVID
Codec ID/Hint : XviD
Duration : 2h 19mn
Bit rate : 1 300 Kbps
Width : 720 pixels
Height : 304 pixels
Display aspect ratio : 2.35:1
Frame rate : 23.976 fps
Color space : YUV
Chroma subsampling : 4:2:0
Bit depth : 8 bits
Scan type : Progressive
Compression mode : Lossy
Bits/(Pixel*Frame) : 0.248
Stream size : 1.26 GiB (87%)
Writing library : XviD 1.2.1 (UTC 2008-12-04)

Audio
ID : 1
Format : AC-3
Format/Info : Audio Coding 3
Mode extension : CM (complete main)
Format settings, Endianness : Big
Codec ID : 2000
Duration : 2h 19mn
Bit rate mode : Constant
Bit rate : 192 Kbps
Channel(s) : 2 channels
Channel positions : Front: L R
Sampling rate : 48.0 KHz
Bit depth : 16 bits
Compression mode : Lossy
Stream size : 191 MiB (13%)
Alignment : Split accross interleaves
Interleave, duration : 42 ms (1.00 video frame)
Interleave, preload duration : 500 ms


picpicpic
Для увеличения картинки щелкните мышкой по превью

Этот торрент недоступен для скачивания без регистрации, однако доступен по публичной magnet-ссылке (источники с публичных трекеров). Перед использованием ссылки прочтите, пожалуйста Пользовательское соглашение, а также как можно дольше оставайтесь на раздаче! Для того, чтобы скачать сам торрент-файл (который видит больше источников), а также для того, чтобы поблагодарить релизера, вам необходимо зарегистрироваться. Если регистрироваться лень - вы можете также попробовать скачать релиз по нашим партнерским ссылкам ниже.

[underverse.su].t46234.torrent
Трекер: Зарегистрирован   [ 14.11.2014 02:59 ]  

Статус: проверено (by Ведьмочка at 14.11.2014 02:59)
Поблагодарили: пока никто не поблагодарил...
Тип торрента: публичный - доступные источники с открытых трекеров: 
Размер: 1,46 GB (занимает 1/3 DVDR, для записи нужно 1 болванка DVDR/RW)
 
 

Яндекс.Метрика powered by Sphinx


В Н И М А Н И Е
Сайт не распространяет и не хранит электронные версии произведений, а лишь бесплатно и без коммерческой выгоды (не требуя взамен платы,
SMS и т.д.) предоставляет доступ к создаваемому пользователями каталогу ссылок на торрент-файлы, которые содержат только списки хеш-сумм.
Убедительная просьба с жалобами обращаться напрямую к пользователю, разместившему торрент файл.

Вверх