Loading...
Error

Зима мертвецов. Метелица (Николай Пигарев) [2012 г., Ужасы, WEB-DLRip]

Статистика раздачи
Размер:  1,46 GB   |    Зарегистрирован:  2 года   |    Скачан:  29 раз

Полного источника не было: 7 месяцев

Сидов:  0  |  0 KB/s  ]   Личеров:  0  |  0 KB/s  ]

* - сиды/пиры с внешних источников

   
 
Автор Сообщение

Ведьмочка Пол:Жен

14-Ноя-2014 01:51

Зима мертвецов. Метелица
«Русский зомби - бессмысленный и беспощадный»


Страна: Россия
Год выпуска: 2012
Жанр: Ужасы
Продолжительность: 01:26:59
Режиссёр: Николай Пигарев
В ролях: Энди Треу, Максим Суханов, Светлана Акимова, Андрей Карако, Игорь Диковицкий, Галина Масалович, Александр Одинец, Сергей Широчин, Александр Гринелевич, Майкл Борзенков
Сюжет фильма:
Русская зима — страшное дело, особенно если она наступает в середине июля.

Вдоль по улице метелица метет, за метелицей… что-то страшное идет! Московский журналист Константин и дочь местного олигарха Искра прячутся в хозяйственном магазине, капитан Игорь Князев заводит единственный оставшийся на ходу танк, а его возлюбленная Даша убегает от разъяренного мужа, который, узнав об измене, намерен с компанией своих братков разделаться и с женой и с любовником не взирая ни на какую погоду…

И пока самоотверженный оператор Влад фиксирует странные события на пленку а приходской священник отец Михаил достает из сундука свой верный топор… Где-то там, среди метели поднимает свою уродливую голову Русский Зомби — бессмысленный и беспощадный!


Качество видео: WEB-DLRip
Формат: AVI

Видео: XviD, 720x304 (2.35:1), 25.000 fps, ~2202 Кбит/сек
Аудио: AC-3, 192 Кбит/сек, 2 Канала, 48.0 КГц



General
Complete name : \Metelitsa.2012.WEB-DLRip.1400.avi
Format : AVI
Format/Info : Audio Video Interleave
File size : 1.46 GiB
Duration : 1h 26mn
Overall bit rate : 2 404 Kbps
Writing application : VirtualDubMod 1.5.10.3 | www.virtualdub-fr.org || (build 2550/release)
Writing library : VirtualDubMod build 2550/release

Video
ID : 0
Format : MPEG-4 Visual
Format profile : Advanced Simple@L5
Format settings, BVOP : 2
Format settings, QPel : No
Format settings, GMC : No warppoints
Format settings, Matrix : Default (H.263)
Codec ID : XVID
Codec ID/Hint : XviD
Duration : 1h 26mn
Bit rate : 2 202 Kbps
Width : 720 pixels
Height : 304 pixels
Display aspect ratio : 2.35:1
Frame rate : 25.000 fps
Color space : YUV
Chroma subsampling : 4:2:0
Bit depth : 8 bits
Scan type : Progressive
Compression mode : Lossy
Bits/(Pixel*Frame) : 0.402
Stream size : 1.34 GiB (92%)
Writing library : XviD 1.2.1 (UTC 2008-12-04)

Audio
ID : 1
Format : AC-3
Format/Info : Audio Coding 3
Mode extension : CM (complete main)
Format settings, Endianness : Big
Codec ID : 2000
Duration : 1h 26mn
Bit rate mode : Constant
Bit rate : 192 Kbps
Channel(s) : 2 channels
Channel positions : Front: L R
Sampling rate : 48.0 KHz
Bit depth : 16 bits
Compression mode : Lossy
Stream size : 119 MiB (8%)
Alignment : Split accross interleaves
Interleave, duration : 40 ms (1.00 video frame)
Interleave, preload duration : 500 ms


picpicpic
Для увеличения картинки щелкните мышкой по превью

Этот торрент недоступен для скачивания без регистрации, однако доступен по публичной magnet-ссылке (источники с публичных трекеров). Перед использованием ссылки прочтите, пожалуйста Пользовательское соглашение, а также как можно дольше оставайтесь на раздаче! Для того, чтобы скачать сам торрент-файл (который видит больше источников), а также для того, чтобы поблагодарить релизера, вам необходимо зарегистрироваться. Если регистрироваться лень - вы можете также попробовать скачать релиз по нашим партнерским ссылкам ниже.

[underverse.su].t46230.torrent
Трекер: Зарегистрирован   [ 14.11.2014 01:51 ]  

Статус: проверено (by Ведьмочка at 14.11.2014 01:51)
Поблагодарили: пока никто не поблагодарил...
Тип торрента: публичный - доступные источники с открытых трекеров: 
Размер: 1,46 GB (занимает 0,33 DVDR, для записи нужно 1 болванка DVDR/RW)
 
 

Яндекс.Метрика powered by Sphinx


В Н И М А Н И Е
Сайт не распространяет и не хранит электронные версии произведений, а лишь бесплатно и без коммерческой выгоды (не требуя взамен платы,
SMS и т.д.) предоставляет доступ к создаваемому пользователями каталогу ссылок на торрент-файлы, которые содержат только списки хеш-сумм.
Убедительная просьба с жалобами обращаться напрямую к пользователю, разместившему торрент файл.

Вверх