Loading...
Error

Я закопаю тебя / Je Te Survivrai (Сильвестр Сбилль) [2014 г., Драма, Комедия, HDTVRip] MVO (RUS)

Статистика раздачи
Размер:  1,36 GB   |    Зарегистрирован:  2 года   |    Скачан:  17 раз

Полного источника не было: 1 год 5 месяцев

Сидов:  0  |  0 KB/s  ]   Личеров:  0  |  0 KB/s  ]

* - сиды/пиры с внешних источников

   
 
Автор Сообщение

Ведьмочка Пол:Жен

14-Ноя-2014 01:41

Я закопаю тебя / Je Te Survivrai


Страна: Франция , Бельгия
Год выпуска: 2014
Жанр: Драма, Комедия
Продолжительность: 01:28:15
Режиссёр: Сильвестр Сбилль
В ролях: Джонатан Цассаи, Бен Рига, Лорен Капеллуто, Таня Гарбарски, Давид Муржиа, Беноит Бертуззо, Марго Леду, Эмма Дюпон, Пьер Хендрикс, Мишель Феда
Сюжет фильма:
Джо — агент по продаже недвижимости. Он — профессионал своего дела, способный удовлетворить любого, самого требовательного клиента. Однако, есть у Джо и проблемы — он никак не может наладить свою личную жизнь. Джо решает переехать в загородный дом, чтобы жить в тишине и покое…

Озвучивание:
  • Профессиональный, Многоголосный, Русский

Качество видео: HDTVRip
Формат: AVI

Видео: XviD, 720x304 (2.35:1), 25.000 fps, ~1753 Кбит/сек
Аудио: AC-3, 448 Кбит/сек, 6 Каналов, 48.0 КГц

Rip by:



General
Complete name : \Ja.zakopaju.tebja.2014.HDTVRip.MediaClub.avi
Format : AVI
Format/Info : Audio Video Interleave
File size : 1.36 GiB
Duration : 1h 28mn
Overall bit rate : 2 211 Kbps
Movie name : MediaClub
Writing application : VirtualDubMod 1.5.10.2 (build 2540/release)
Writing library : VirtualDubMod build 2540/release

Video
ID : 0
Format : MPEG-4 Visual
Format profile : Advanced Simple@L5
Format settings, BVOP : 2
Format settings, QPel : No
Format settings, GMC : No warppoints
Format settings, Matrix : Default (MPEG)
Codec ID : XVID
Codec ID/Hint : XviD
Duration : 1h 28mn
Bit rate : 1 753 Kbps
Width : 720 pixels
Height : 304 pixels
Display aspect ratio : 2.35:1
Frame rate : 25.000 fps
Color space : YUV
Chroma subsampling : 4:2:0
Bit depth : 8 bits
Scan type : Progressive
Compression mode : Lossy
Bits/(Pixel*Frame) : 0.320
Stream size : 1.08 GiB (79%)
Writing library : XviD 65

Audio
ID : 1
Format : AC-3
Format/Info : Audio Coding 3
Mode extension : CM (complete main)
Format settings, Endianness : Big
Codec ID : 2000
Duration : 1h 28mn
Bit rate mode : Constant
Bit rate : 448 Kbps
Channel(s) : 6 channels
Channel positions : Front: L C R, Side: L R, LFE
Sampling rate : 48.0 KHz
Bit depth : 16 bits
Compression mode : Lossy
Stream size : 283 MiB (20%)
Alignment : Split accross interleaves
Interleave, duration : 40 ms (1.00 video frame)
Interleave, preload duration : 500 ms


picpicpic
Для увеличения картинки щелкните мышкой по превью

Этот торрент недоступен для скачивания без регистрации, однако доступен по публичной magnet-ссылке (источники с публичных трекеров). Перед использованием ссылки прочтите, пожалуйста Пользовательское соглашение, а также как можно дольше оставайтесь на раздаче! Для того, чтобы скачать сам торрент-файл (который видит больше источников), а также для того, чтобы поблагодарить релизера, вам необходимо зарегистрироваться. Если регистрироваться лень - вы можете также попробовать скачать релиз по нашим партнерским ссылкам ниже.

[underverse.su].t46229.torrent
Трекер: Зарегистрирован   [ 14.11.2014 01:41 ]  

Статус: проверено (by Ведьмочка at 14.11.2014 01:41)
Поблагодарили: пока никто не поблагодарил...
Тип торрента: публичный - доступные источники с открытых трекеров: 
Размер: 1,36 GB (занимает 0,31 DVDR, для записи нужно 1 болванка DVDR/RW)
 
 
Похожие темы
Форум Тема Автор Торрент Отв. Посл. сооб.
Зарубежное кино [DVDRip, Low-Res HDRip, и т.д.] Я закопаю тебя / Je te survivrai (Сильвестр Сбилье) [2014 г., комедия, WEB-DLRip] MVO Паукан
5 | 0

0 | 1254

63

03.07.2014 06:32

Зарубежное кино [DVDRip, Low-Res HDRip, и т.д.] Я закопаю тебя / Je Te Survivrai (Сильвестр Сбилль) [2014 г., Драма, Комедия, HDTVRip-AVC] MVO (RUS) Ведьмочка
3 | 0

0 | 496

1

14.11.2014 01:36

Зарубежное кино [HDDVDRip / BDRip / WEB-DL / HDTV 1080/720р] Я закопаю тебя / Je Te Survivrai (Сильвестр Сбилль) [2014 г., Драма, Комедия, HDTVRip 720p] MVO (RUS) Ведьмочка
5 | 0

0 | 487

12

14.11.2014 01:31


Яндекс.Метрика powered by Sphinx


В Н И М А Н И Е
Сайт не распространяет и не хранит электронные версии произведений, а лишь бесплатно и без коммерческой выгоды (не требуя взамен платы,
SMS и т.д.) предоставляет доступ к создаваемому пользователями каталогу ссылок на торрент-файлы, которые содержат только списки хеш-сумм.
Убедительная просьба с жалобами обращаться напрямую к пользователю, разместившему торрент файл.

Вверх