Loading...
Error

Я закопаю тебя / Je Te Survivrai (Сильвестр Сбилль) [2014 г., Драма, Комедия, HDTVRip-AVC] MVO (RUS)

Статистика раздачи
Размер:  1,57 GB   |    Зарегистрирован:  2 года   |    Скачан:  1 раз

Полного источника не было: 1 год 11 месяцев

Сидов:  0  |  0 KB/s  ]   Личеров:  0  |  0 KB/s  ]

* - сиды/пиры с внешних источников

   
 
Автор Сообщение

Ведьмочка Пол:Жен

14-Ноя-2014 01:36

Я закопаю тебя / Je Te Survivrai


Страна: Франция , Бельгия
Год выпуска: 2014
Жанр: Драма, Комедия
Продолжительность: 01:28:15
Режиссёр: Сильвестр Сбилль
В ролях: Джонатан Цассаи, Бен Рига, Лорен Капеллуто, Таня Гарбарски, Давид Муржиа, Беноит Бертуззо, Марго Леду, Эмма Дюпон, Пьер Хендрикс, Мишель Феда
Сюжет фильма:
Джо — агент по продаже недвижимости. Он — профессионал своего дела, способный удовлетворить любого, самого требовательного клиента. Однако, есть у Джо и проблемы — он никак не может наладить свою личную жизнь. Джо решает переехать в загородный дом, чтобы жить в тишине и покое…

Озвучивание:
  • Профессиональный, Многоголосный, Русский

Качество видео: HDTVRip-AVC
Формат: MKV

Видео: AVC, 1024x432 (2.40:1), 25.000 fps, ~2100 Кбит/сек
Аудио: AC-3, 448 Кбит/сек, 6 Каналов, 48.0 КГц

Rip by:



General
Unique ID : 245493549952763042839665047738020707856 (0xB8B05680AA9FD4FD84FF714FE162BE10)
Complete name : \Ja.zakopaju.tebja.2014.x264.HDTVRip(AVC).MediaClub.mkv
Format : Matroska
Format version : Version 2
File size : 1.57 GiB
Duration : 1h 28mn
Overall bit rate : 2 550 Kbps
Movie name : MediaClub
Encoded date : UTC 2014-11-13 15:55:47
Writing application : mkvmerge v5.4.0 ('Piper') built on Mar 10 2012 13:34:39
Writing library : libebml v1.2.3 + libmatroska v1.3.0

Video
ID : 1
Format : AVC
Format/Info : Advanced Video Codec
Format profile : High@L4.1
Format settings, CABAC : Yes
Format settings, ReFrames : 10 frames
Codec ID : V_MPEG4/ISO/AVC
Duration : 1h 28mn
Bit rate : 2 100 Kbps
Width : 1 024 pixels
Height : 432 pixels
Display aspect ratio : 2.40:1
Frame rate mode : Constant
Frame rate : 25.000 fps
Color space : YUV
Chroma subsampling : 4:2:0
Bit depth : 8 bits
Scan type : Progressive
Bits/(Pixel*Frame) : 0.190
Stream size : 1.26 GiB (80%)
Writing library : x264 core 125 r2208 d9d2288
Encoding settings : cabac=1 / ref=10 / deblock=1:-3:-2 / analyse=0x3:0x133 / me=umh / subme=10 / psy=1 / psy_rd=1.00:0.20 / mixed_ref=1 / me_range=48 / chroma_me=1 / trellis=2 / 8x8dct=1 / cqm=0 / deadzone=21,11 / fast_pskip=0 / chroma_qp_offset=-3 / threads=6 / lookahead_threads=1 / sliced_threads=0 / nr=0 / decimate=0 / interlaced=0 / bluray_compat=0 / constrained_intra=0 / bframes=8 / b_pyramid=2 / b_adapt=2 / b_bias=0 / direct=3 / weightb=1 / open_gop=0 / weightp=2 / keyint=250 / keyint_min=25 / scenecut=40 / intra_refresh=0 / rc=2pass / mbtree=0 / bitrate=2100 / ratetol=1.0 / qcomp=0.60 / qpmin=0 / qpmax=69 / qpstep=4 / cplxblur=20.0 / qblur=0.5 / ip_ratio=1.40 / pb_ratio=1.30 / aq=1:1.00
Default : Yes
Forced : No

Audio
ID : 2
Format : AC-3
Format/Info : Audio Coding 3
Mode extension : CM (complete main)
Format settings, Endianness : Big
Codec ID : A_AC3
Duration : 1h 28mn
Bit rate mode : Constant
Bit rate : 448 Kbps
Channel(s) : 6 channels
Channel positions : Front: L C R, Side: L R, LFE
Sampling rate : 48.0 KHz
Bit depth : 16 bits
Compression mode : Lossy
Stream size : 283 MiB (18%)
Language : Russian
Default : Yes
Forced : No


picpicpic
Для увеличения картинки щелкните мышкой по превью

Этот торрент недоступен для скачивания без регистрации, однако доступен по публичной magnet-ссылке (источники с публичных трекеров). Перед использованием ссылки прочтите, пожалуйста Пользовательское соглашение, а также как можно дольше оставайтесь на раздаче! Для того, чтобы скачать сам торрент-файл (который видит больше источников), а также для того, чтобы поблагодарить релизера, вам необходимо зарегистрироваться. Если регистрироваться лень - вы можете также попробовать скачать релиз по нашим партнерским ссылкам ниже.

[underverse.su].t46228.torrent
Трекер: Зарегистрирован   [ 14.11.2014 01:36 ]  

Статус: проверено (by Ведьмочка at 14.11.2014 01:36)
Поблагодарили: пока никто не поблагодарил...
Тип торрента: публичный - доступные источники с открытых трекеров: 
Размер: 1,57 GB (занимает 0,36 DVDR, для записи нужно 1 болванка DVDR/RW)
 
 
Похожие темы
Форум Тема Автор Торрент Отв. Посл. сооб.
Зарубежное кино [DVDRip, Low-Res HDRip, и т.д.] Я закопаю тебя / Je te survivrai (Сильвестр Сбилье) [2014 г., комедия, WEB-DLRip] MVO Паукан
5 | 0

0 | 1254

63

03.07.2014 06:32

Зарубежное кино [DVDRip, Low-Res HDRip, и т.д.] Я закопаю тебя / Je Te Survivrai (Сильвестр Сбилль) [2014 г., Драма, Комедия, HDTVRip] MVO (RUS) Ведьмочка
131 | 2

0 | 622

17

14.11.2014 01:41

Зарубежное кино [HDDVDRip / BDRip / WEB-DL / HDTV 1080/720р] Я закопаю тебя / Je Te Survivrai (Сильвестр Сбилль) [2014 г., Драма, Комедия, HDTVRip 720p] MVO (RUS) Ведьмочка
5 | 0

0 | 487

12

14.11.2014 01:31


Яндекс.Метрика powered by Sphinx


В Н И М А Н И Е
Сайт не распространяет и не хранит электронные версии произведений, а лишь бесплатно и без коммерческой выгоды (не требуя взамен платы,
SMS и т.д.) предоставляет доступ к создаваемому пользователями каталогу ссылок на торрент-файлы, которые содержат только списки хеш-сумм.
Убедительная просьба с жалобами обращаться напрямую к пользователю, разместившему торрент файл.

Вверх