Loading...
Error

Джезабель / Jessabelle (Кевин Гротерт) [2014 г., Ужасы, Триллер, WEB-DLRip] VO (RUS, R.A.I.M.)

Статистика раздачи
Размер:  1,36 GB   |    Зарегистрирован:  2 года   |    Скачан:  35 раз

Полного источника не было: 1 год

Сидов:  0  |  0 KB/s  ]   Личеров:  0  |  0 KB/s  ]

* - сиды/пиры с внешних источников

   
 
Автор Сообщение

Ведьмочка Пол:Жен

14-Ноя-2014 00:58

Джезабель / Jessabelle
«И мёртвые восстанут»


Страна: США
Год выпуска: 2014
Жанр: Ужасы, Триллер
Продолжительность: 01:30:08
Режиссёр: Кевин Гротерт
В ролях: Сара Снук, Джоэль Картер, Марк Веббер, Дэвид Эндрюс, Ана де ла Регера, Эмбер Стивенс, Крис Эллис, Брайан Хэллисей, Вон Уилсон, Лариса Олейник
Сюжет фильма:
После трагической аварии, унесшей жизни мужа Джесси и их еще нерожденного ребенка, девушка оказывается прикована к инвалидному креслу и вынуждена переехать к своему отцу, проживающему в отдаленном особняке. Вскоре она обнаруживает загадочные видеозаписи, снятые ее давно умершей матерью. Джесси с ужасом понимает, что таинственные предсказания начинают сбываться…

Озвучивание:
  • Любительский, Одноголосный, Русский [R.A.I.M.]

Качество видео: WEB-DLRip
Формат: AVI

Видео: XviD, 720x400 (16:9), 23.976 fps, ~1772 Кбит/сек
Аудио: AC-3, 384 Кбит/сек, 6 Каналов, 48.0 КГц



General
Complete name : \Jessabelle.2014.L1.WEB-DLRip.1400MB.avi
Format : AVI
Format/Info : Audio Video Interleave
File size : 1.36 GiB
Duration : 1h 30mn
Overall bit rate : 2 165 Kbps
Writing application : VirtualDubMod 1.5.10.3 | www.virtualdub-fr.org || (build 2550/release)
Writing library : VirtualDubMod build 2550/release

Video
ID : 0
Format : MPEG-4 Visual
Format profile : Advanced Simple@L5
Format settings, BVOP : 1
Format settings, QPel : No
Format settings, GMC : No warppoints
Format settings, Matrix : Custom
Codec ID : XVID
Codec ID/Hint : XviD
Duration : 1h 30mn
Bit rate : 1 772 Kbps
Width : 720 pixels
Height : 400 pixels
Display aspect ratio : 16:9
Frame rate : 23.976 fps
Color space : YUV
Chroma subsampling : 4:2:0
Bit depth : 8 bits
Scan type : Progressive
Compression mode : Lossy
Bits/(Pixel*Frame) : 0.257
Stream size : 1.12 GiB (82%)
Writing library : XviD 73

Audio
ID : 1
Format : AC-3
Format/Info : Audio Coding 3
Mode extension : CM (complete main)
Format settings, Endianness : Big
Codec ID : 2000
Duration : 1h 30mn
Bit rate mode : Constant
Bit rate : 384 Kbps
Channel(s) : 6 channels
Channel positions : Front: L C R, Side: L R, LFE
Sampling rate : 48.0 KHz
Bit depth : 16 bits
Compression mode : Lossy
Stream size : 248 MiB (18%)
Alignment : Split accross interleaves
Interleave, duration : 42 ms (1.00 video frame)
Interleave, preload duration : 500 ms


picpicpic
Для увеличения картинки щелкните мышкой по превью

Этот торрент недоступен для скачивания без регистрации, однако доступен по публичной magnet-ссылке (источники с публичных трекеров). Перед использованием ссылки прочтите, пожалуйста Пользовательское соглашение, а также как можно дольше оставайтесь на раздаче! Для того, чтобы скачать сам торрент-файл (который видит больше источников), а также для того, чтобы поблагодарить релизера, вам необходимо зарегистрироваться. Если регистрироваться лень - вы можете также попробовать скачать релиз по нашим партнерским ссылкам ниже.

[underverse.su].t46226.torrent
Трекер: Зарегистрирован   [ 14.11.2014 00:58 ]  

Статус: проверено (by Ведьмочка at 14.11.2014 00:58)
Поблагодарили: пока никто не поблагодарил...
Тип торрента: публичный - доступные источники с открытых трекеров: 
Размер: 1,36 GB (занимает 0,31 DVDR, для записи нужно 1 болванка DVDR/RW)
 
 
Похожие темы
Форум Тема Автор Торрент Отв. Посл. сооб.
Зарубежное кино [DVDRip, Low-Res HDRip, и т.д.] Джезабель / Jessabelle (Кевин Гротерт) [2014 г., ужасы, триллер, HDRip] Джезабель / Jessabelle (Кевин Гротерт / Kevin Greutert) [2014 г., ужасы, триллер, HDRip] DVO (Сладкая Парочка) 90ytr90
24 | 2

0 | 553

10

03.01.2015 14:19

Зарубежное кино [DVDRip, Low-Res HDRip, и т.д.] Джезабель / Jessabelle (Кевин Гротерт) [2014 г., ужасы, триллер, HDRip] Джезабель / Jessabelle (Кевин Гротерт / Kevin Greutert) [2014 г., ужасы, триллер, BDRip-AVC] DVO (Paradox) + Sub (Rus, Eng) 90ytr90
15 | 0

1 | 564

3

12.04.2015 03:33

Зарубежное кино [DVDRip, Low-Res HDRip, и т.д.] Джезабель / Jessabelle (Кевин Гротерт) [2014 г., ужасы, триллер, HDRip] Джезабель / Jessabelle (Кевин Гротерт / Kevin Greutert) [2014 г., ужасы, триллер, BDRip-AVC] 2xDVO +3xVO + Original (Eng) + Sub... 90ytr90
0 | 0

0 | 499

6

28.02.2015 20:06

T Зарубежное кино [DVDRip, Low-Res HDRip, и т.д.] Джезабель / Jessabelle (Кевин Гротерт) [2014 г., ужасы, триллер, HDRip] Dub [чистый звук] Паукан
5 | 0

0 | 649

16

03.04.2015 15:56

T Зарубежное кино [DVDRip, Low-Res HDRip, и т.д.] Джезабель / Jessabelle (Кевин Гротерт) [2014 г., триллер, ужасы, HDRip] Dub makkol
11 | 0

0 | 267

8

22.09.2015 15:17

Зарубежное кино [HDDVDRip / BDRip / WEB-DL / HDTV 1080/720р] Джезабель / Jessabelle (Кевин Гротерт) [2014 г., Ужасы, Триллер, WEB-DL 720p] 2-VO (RUS, datynet / R.A.I.M.) + Original (ENG) + Subs (RUS, ENG) Ведьмочка
2 | 0

0 | 883

11

14.11.2014 00:53

Зарубежное кино [HDDVDRip / BDRip / WEB-DL / HDTV 1080/720р] Джезабель / Jessabelle (Кевин Гротерт) [2014 г., Ужасы, Триллер, BDRip 720p] 2-DVO (RUS, Сладкая Парочка / ParaDox) + 3-VO (RUS, А. Агапов / R.A.I.M. / TimeMashine) + Original (ENG) + Subs (RUS, ENG) Ведьмочка
7 | 0

0 | 610

3

04.01.2015 07:03

T Зарубежное кино [HDDVDRip / BDRip / WEB-DL / HDTV 1080/720р] Джезабель / Jessabelle (Кевин Гротерт) [2014 г., ужасы, триллер, BDRip 720p] Dub [чистый звук] + Original Паукан
0 | 0

0 | 893

16

03.04.2015 16:01

T Зарубежное кино [HDDVDRip / BDRip / WEB-DL / HDTV 1080/720р] Джезабель / Jessabelle (Кевин Гротерт) [2014 г., ужасы, триллер, BDRip 720p] Dub + Original makkol
12 | 0

0 | 312

1

22.09.2015 15:31

T Зарубежное кино [HDDVDRip / BDRip / WEB-DL / HDTV 1080/720р] Джезабель / Jessabelle (Кевин Гротерт) [2014 г., ужасы, триллер, BDRip 1080p] Dub + Original makkol
12 | 0

0 | 374

7

22.09.2015 15:41


Яндекс.Метрика powered by Sphinx


В Н И М А Н И Е
Сайт не распространяет и не хранит электронные версии произведений, а лишь бесплатно и без коммерческой выгоды (не требуя взамен платы,
SMS и т.д.) предоставляет доступ к создаваемому пользователями каталогу ссылок на торрент-файлы, которые содержат только списки хеш-сумм.
Убедительная просьба с жалобами обращаться напрямую к пользователю, разместившему торрент файл.

Вверх