Loading...
Error

Рука Дьявола / Where the Devil Hides (Кристиан Е. Кристиансен) [2014 г., Триллер, WEB-DLRip] VO (RUS, ХиХиДок) + Original (ENG)

Статистика раздачи
Размер:  1,45 GB   |    Зарегистрирован:  2 года   |    Скачан:  23 раза

Полного источника не было: 7 месяцев

Сидов:  0  |  0 KB/s  ]   Личеров:  0  |  0 KB/s  ]

* - сиды/пиры с внешних источников

   
 
Автор Сообщение

Ведьмочка Пол:Жен

14-Ноя-2014 00:13

Рука Дьявола / Where the Devil Hides
«Forgive me father for I am SIN»


Страна: США
Год выпуска: 2014
Жанр: Триллер
Продолжительность: 01:25:29
Режиссёр: Кристиан Е. Кристиансен
В ролях: Руфус Сьюэлл, Алисия Дебнем Кери, Томас МакДонелл, Аделаида Кэйн, Леа Пайпс, Рик Рейц, Дженнифер Карпентер, Колм Мини, Джим Маккини, Николь Эллиотт
Сюжет фильма:
Пять юных девушек, живущих в общине амишей, обвиняются местным сообществом в одержимости дьяволом. Подозревая, что под «обрядом очищения» старейшины религиозной группы подразумевают вовсе не исцеление, девушки вынуждены бороться за свою жизнь не с потусторонними силами, а с фанатично настроенными людьми.

Озвучивание:
  • Любительский, Одноголосный, Русский [ХиХиДок]
  • Оригинал, Английский

Качество видео: WEB-DLRip
Формат: AVI

Видео: XviD, 720x304 (2.35:1), 24.000 fps, ~2030 Кбит/сек
Аудио #1: AC-3, 192 Кбит/сек, 2 Канала, 44.1 КГц
Аудио #2: AC-3, 192 Кбит/сек, 2 Канала, 48.0 КГц



General
Complete name : \Where.the.Devil.Hides.2014.L1.WEB-DLRip.avi
Format : AVI
Format/Info : Audio Video Interleave
File size : 1.45 GiB
Duration : 1h 25mn
Overall bit rate : 2 428 Kbps
Writing application : VirtualDubMod 1.5.10.3 | www.virtualdub-fr.org || (build 2550/release)
Writing library : VirtualDubMod build 2550/release

Video
ID : 0
Format : MPEG-4 Visual
Format profile : Advanced Simple@L5
Format settings, BVOP : 1
Format settings, QPel : No
Format settings, GMC : No warppoints
Format settings, Matrix : Custom
Codec ID : XVID
Codec ID/Hint : XviD
Duration : 1h 25mn
Bit rate : 2 030 Kbps
Width : 720 pixels
Height : 304 pixels
Display aspect ratio : 2.35:1
Frame rate : 24.000 fps
Color space : YUV
Chroma subsampling : 4:2:0
Bit depth : 8 bits
Scan type : Progressive
Compression mode : Lossy
Bits/(Pixel*Frame) : 0.386
Stream size : 1.21 GiB (84%)
Writing library : XviD 73

Audio #1
ID : 1
Format : AC-3
Format/Info : Audio Coding 3
Mode extension : CM (complete main)
Format settings, Endianness : Big
Codec ID : 2000
Duration : 1h 25mn
Bit rate mode : Constant
Bit rate : 192 Kbps
Channel(s) : 2 channels
Channel positions : Front: L R
Sampling rate : 44.1 KHz
Bit depth : 16 bits
Compression mode : Lossy
Delay relative to video : 29ms
Stream size : 117 MiB (8%)
Alignment : Split accross interleaves
Interleave, duration : 42 ms (1.00 video frame)
Interleave, preload duration : 500 ms

Audio #2
ID : 2
Format : AC-3
Format/Info : Audio Coding 3
Mode extension : CM (complete main)
Format settings, Endianness : Big
Codec ID : 2000
Duration : 1h 25mn
Bit rate mode : Constant
Bit rate : 192 Kbps
Channel(s) : 2 channels
Channel positions : Front: L R
Sampling rate : 48.0 KHz
Bit depth : 16 bits
Compression mode : Lossy
Delay relative to video : 16ms
Stream size : 117 MiB (8%)
Alignment : Split accross interleaves
Interleave, duration : 42 ms (1.00 video frame)
Interleave, preload duration : 500 ms


picpicpic
Для увеличения картинки щелкните мышкой по превью

Этот торрент недоступен для скачивания без регистрации, однако доступен по публичной magnet-ссылке (источники с публичных трекеров). Перед использованием ссылки прочтите, пожалуйста Пользовательское соглашение, а также как можно дольше оставайтесь на раздаче! Для того, чтобы скачать сам торрент-файл (который видит больше источников), а также для того, чтобы поблагодарить релизера, вам необходимо зарегистрироваться. Если регистрироваться лень - вы можете также попробовать скачать релиз по нашим партнерским ссылкам ниже.

[underverse.su].t46223.torrent
Трекер: Зарегистрирован   [ 14.11.2014 00:13 ]  

Статус: проверено (by Ведьмочка at 14.11.2014 00:13)
Поблагодарили: пока никто не поблагодарил...
Тип торрента: публичный - доступные источники с открытых трекеров: 
Размер: 1,45 GB (занимает 1/3 DVDR, для записи нужно 1 болванка DVDR/RW)
 
 
Похожие темы
Форум Тема Автор Торрент Отв. Посл. сооб.
T Зарубежное кино [DVDRip, Low-Res HDRip, и т.д.] Рука Дьявола / Где скрывается Дьявол / Where the Devil Hides (Кристиан Е. Кристиансен) [2014 г., триллер, ужасы, HDRip] Dub (Line) makkol
90 | 3

0 | 380

16

11.07.2015 09:12

Зарубежное кино [HDDVDRip / BDRip / WEB-DL / HDTV 1080/720р] Рука Дьявола / Where the Devil Hides (Кристиан Е. Кристиансен) [2014 г., Триллер, WEB-DL 720p] VO (RUS, ХиХиДок) + Original (ENG) Ведьмочка
12 | 2

0 | 640

8

14.11.2014 00:03

T Зарубежное кино [HDDVDRip / BDRip / WEB-DL / HDTV 1080/720р] Рука Дьявола / Где скрывается Дьявол / Where the Devil Hides (Кристиан Е. Кристиансен) [2014 г., триллер, ужасы, BDRip 720p] Dub (Line) + Original makkol
1 | 1

0 | 279

3

11.07.2015 09:23

T Зарубежное кино [HDDVDRip / BDRip / WEB-DL / HDTV 1080/720р] Рука Дьявола / Где скрывается Дьявол / Where the Devil Hides (Кристиан Е. Кристиансен) [2014 г., триллер, ужасы, BDRip 1080p] Dub (Line) + Original makkol
7 | 0

0 | 442

4

11.07.2015 09:32


Яндекс.Метрика powered by Sphinx


В Н И М А Н И Е
Сайт не распространяет и не хранит электронные версии произведений, а лишь бесплатно и без коммерческой выгоды (не требуя взамен платы,
SMS и т.д.) предоставляет доступ к создаваемому пользователями каталогу ссылок на торрент-файлы, которые содержат только списки хеш-сумм.
Убедительная просьба с жалобами обращаться напрямую к пользователю, разместившему торрент файл.

Вверх