Loading...
Error

Куколка / Chrysalis (Джон Клейн) [2014 г., Ужасы, Фантастика, Драма, WEB-DLRip] DVO (RUS, Влад & Снежинка) + Original (ENG)

Статистика раздачи
Размер:  1,36 GB   |    Зарегистрирован:  2 года   |    Скачан:  34 раза

Полного источника не было: 10 месяцев

Сидов:  0  |  0 KB/s  ]   Личеров:  0  |  0 KB/s  ]

* - сиды/пиры с внешних источников

   
 
Автор Сообщение

Ведьмочка Пол:Жен

13-Ноя-2014 23:14

Куколка / Chrysalis
«The infection is spreading»


Страна: США
Год выпуска: 2014
Жанр: Ужасы, Фантастика, Драма
Продолжительность: 01:39:04
Режиссёр: Джон Клейн
В ролях: Сара Горски, Коул Саймон, Таня Таи МакБрайд, Клэйтон Стэмпер, Кейт Блэк-Спенс, Ник Кардифф, Джесси Гентри, Марк Солофф, Майк Моленда, Мойра Бигейл
Сюжет фильма:
Джошуа и Пенелопа - выжившие после распространения смертельной инфекции, уничтожившей человечество 25 лет назад. Когда они сталкиваются с еще одной выжившей, Авирой, их жизни навсегда меняются, поскольку им приходится противостоять неожиданному наплыву зараженных, которые, казалось бы, начали исчезать...

Озвучивание:
  • Любительский, Двухголосный, Русский [Влад & Снежинка]
  • Оригинал, Английский

Качество видео: WEB-DLRip
Формат: AVI

Видео: XviD, 720x304 (2.35:1), 23.976 fps, ~1574 Кбит/сек
Аудио #1: AC-3, 192 Кбит/сек, 2 Канала, 48.0 КГц
Аудио #2: AC-3, 192 Кбит/сек, 2 Канала, 48.0 КГц

Rip by:



General
Complete name : \Chrysalis.2014.WEB.DLRip.CINEMANIA.avi
Format : AVI
Format/Info : Audio Video Interleave
File size : 1.36 GiB
Duration : 1h 39mn
Overall bit rate : 1 972 Kbps
Writing application : VirtualDubMod 1.5.10.2 (build 2542/release)
Writing library : VirtualDubMod build 2542/release

Video
ID : 0
Format : MPEG-4 Visual
Format profile : Advanced Simple@L5
Format settings, BVOP : 2
Format settings, QPel : No
Format settings, GMC : No warppoints
Format settings, Matrix : Default (MPEG)
Codec ID : XVID
Codec ID/Hint : XviD
Duration : 1h 39mn
Bit rate : 1 574 Kbps
Width : 720 pixels
Height : 304 pixels
Display aspect ratio : 2.35:1
Frame rate : 23.976 fps
Color space : YUV
Chroma subsampling : 4:2:0
Bit depth : 8 bits
Scan type : Progressive
Compression mode : Lossy
Bits/(Pixel*Frame) : 0.300
Stream size : 1.09 GiB (80%)
Writing library : XviD 1.2.1 (UTC 2008-12-04)

Audio #1
ID : 1
Format : AC-3
Format/Info : Audio Coding 3
Mode extension : CM (complete main)
Format settings, Endianness : Big
Codec ID : 2000
Duration : 1h 39mn
Bit rate mode : Constant
Bit rate : 192 Kbps
Channel(s) : 2 channels
Channel positions : Front: L R
Sampling rate : 48.0 KHz
Bit depth : 16 bits
Compression mode : Lossy
Stream size : 136 MiB (10%)
Alignment : Split accross interleaves
Interleave, duration : 42 ms (1.00 video frame)
Interleave, preload duration : 500 ms

Audio #2
ID : 2
Format : AC-3
Format/Info : Audio Coding 3
Mode extension : CM (complete main)
Format settings, Endianness : Big
Codec ID : 2000
Duration : 1h 39mn
Bit rate mode : Constant
Bit rate : 192 Kbps
Channel(s) : 2 channels
Channel positions : Front: L R
Sampling rate : 48.0 KHz
Bit depth : 16 bits
Compression mode : Lossy
Stream size : 136 MiB (10%)
Alignment : Split accross interleaves
Interleave, duration : 42 ms (1.00 video frame)
Interleave, preload duration : 500 ms


picpicpic
Для увеличения картинки щелкните мышкой по превью

Этот торрент недоступен для скачивания без регистрации, однако доступен по публичной magnet-ссылке (источники с публичных трекеров). Перед использованием ссылки прочтите, пожалуйста Пользовательское соглашение, а также как можно дольше оставайтесь на раздаче! Для того, чтобы скачать сам торрент-файл (который видит больше источников), а также для того, чтобы поблагодарить релизера, вам необходимо зарегистрироваться. Если регистрироваться лень - вы можете также попробовать скачать релиз по нашим партнерским ссылкам ниже.

[underverse.su].t46221.torrent
Трекер: Зарегистрирован   [ 13.11.2014 23:14 ]  

Статус: проверено (by Ведьмочка at 13.11.2014 23:16)
Поблагодарили: пока никто не поблагодарил...
Тип торрента: публичный - доступные источники с открытых трекеров: 
Размер: 1,36 GB (занимает 0,31 DVDR, для записи нужно 1 болванка DVDR/RW)
 
 
Похожие темы
Форум Тема Автор Торрент Отв. Посл. сооб.
Зарубежное кино [DVDRip, Low-Res HDRip, и т.д.] Куколка / The Chrysalis (Чу-цзи Цю) [2012 г., ужасы, триллер, HDTVRip] DVO [DeadSno & den904] Паукан
0 | 0

0 | 974

6

08.05.2013 09:26

Зарубежное кино [HDDVDRip / BDRip / WEB-DL / HDTV 1080/720р] Куколка / The Chrysalis (Чу-цзи Цю) [2012 г., ужасы, триллер, HDTVRip 720p] DVO [DeadSno & den904] Паукан
2 | 0

0 | 396

1

07.05.2013 14:40


Яндекс.Метрика powered by Sphinx


В Н И М А Н И Е
Сайт не распространяет и не хранит электронные версии произведений, а лишь бесплатно и без коммерческой выгоды (не требуя взамен платы,
SMS и т.д.) предоставляет доступ к создаваемому пользователями каталогу ссылок на торрент-файлы, которые содержат только списки хеш-сумм.
Убедительная просьба с жалобами обращаться напрямую к пользователю, разместившему торрент файл.

Вверх