Loading...
Error

Экстрасенс 2: Лабиринты разума / Mindscape (Хорхе С. Дорадо / Jorge Dorado) [2013, триллер, драма, HDRip] Dub (RUS) + Original (ENG) |Звук с TS|

Статистика раздачи
Размер:  1,46 GB   |    Зарегистрирован:  2 года   |    Скачан:  29 раз

Полного источника не было: 1 месяц

Сидов:  0  |  0 KB/s  ]   Личеров:  0  |  0 KB/s  ]

* - сиды/пиры с внешних источников

   
 
Автор Сообщение

viktor.r-79 Пол:Муж

13-Ноя-2014 11:04

Экстрасенс 2: Лабиринты разума / Mindscape
«Не впускайте Ее»

Год выпуска: 2013
Жанр: триллер, драма
Выпущено: США, Испания, Франция
Продолжительность: 01:38:47
Перевод: Профессиональный (полное дублирование) |Звук с TS|
Режиссер:
Хорхе С. Дорадо / Jorge Dorado
В ролях:
Индира Варма, Таисса Фармига, Марк Стронг, Брайан Кокс, Ноа Тейлор, Род Халлетт, Саския Ривз, Джессика Барден, Клер Кэлбрайт, Альберто Амман

Описание:
Джон — человек, обладающий паранормальными способностями, расследует новое дело. В этот раз ему предстоит общение с 16 летней напуганной девушкой, и главному герою предстоит ответить на вопрос — кто такая Анна? Жертва обстоятельств или убийца-социопат?
Качество: HDRip
Формат: AVI
Видео кодек: XviD
Аудио кодек: AC3
Видео: 720x304 (2.35:1), 23.976 fps, XviD ~1717 kbps avg
Аудио 1: 48 kHz, AC3 Dolby Digital, 2/0 (L,R) ch, ~192.00 kbps avg |DUB, TS|
Аудио 2: 48 kHz, AC3 Dolby Digital, 2/0 (L,R) ch, ~192.00 kbps avg |ENG|

Код:

Общее
Полное имя                       : D:\торрент\3k57r453Hc.2.2013.Dt.HDRip.1400MB.avi
Формат                           : AVI
Формат/Информация                : Audio Video Interleave
Размер файла                     : 1,46 Гбайт
Продолжительность                : 1 ч. 38 м.
Общий поток                      : 2115 Кбит/сек
Программа кодирования            : VirtualDubMod 1.5.10.2 (build 2540/release)
Библиотека кодирования           : VirtualDubMod build 2540/release

Видео
Идентификатор                    : 0
Формат                           : MPEG-4 Visual
Профиль формата                  : Advanced Simple@L5
Параметр BVOP формата            : 2
Параметр QPel формата            : Нет
Параметр GMC формата             : Без точки перехода
Параметр матрицы формата         : Default (MPEG)
Идентификатор кодека             : XVID
Идентификатор кодека/Подсказка   : XviD
Продолжительность                : 1 ч. 38 м.
Битрейт                          : 1717 Кбит/сек
Ширина                           : 720 пикселей
Высота                           : 304 пикселя
Соотношение сторон               : 2,35:1
Частота кадров                   : 23,976 кадра/сек
Цветовое пространство            : YUV
Субдискретизация насыщенности    : 4:2:0
Битовая глубина                  : 8 бит
Тип развёртки                    : Прогрессивная
Метод сжатия                     : С потерями
Бит/(Пиксели*Кадры)              : 0.327
Размер потока                    : 1,19 Гбайт (81%)
Библиотека кодирования           : XviD 1.2.1 (UTC 2008-12-04)

Аудио #1
Идентификатор                    : 1
Формат                           : AC-3
Формат/Информация                : Audio Coding 3
Расширение режима                : CM (complete main)
Идентификатор кодека             : 2000
Продолжительность                : 1 ч. 38 м.
Вид битрейта                     : Постоянный
Битрейт                          : 192 Кбит/сек
Каналы                           : 2 канала
Расположение каналов             : Front: L R
Частота                          : 48,0 КГц
Битовая глубина                  : 16 бит
Метод сжатия                     : С потерями
Размер потока                    : 136 Мбайт (9%)
Выравнивание                     : Разделение по промежуткам
Продолжительность промежутка     : 42  мс. (1,00 видеокадр)
Время предзагрузки промежутка    : 500  мс.

Аудио #2
Идентификатор                    : 2
Формат                           : AC-3
Формат/Информация                : Audio Coding 3
Расширение режима                : CM (complete main)
Идентификатор кодека             : 2000
Продолжительность                : 1 ч. 38 м.
Вид битрейта                     : Постоянный
Битрейт                          : 192 Кбит/сек
Каналы                           : 2 канала
Расположение каналов             : Front: L R
Частота                          : 48,0 КГц
Битовая глубина                  : 16 бит
Метод сжатия                     : С потерями
Размер потока                    : 136 Мбайт (9%)
Выравнивание                     : Разделение по промежуткам
Продолжительность промежутка     : 42  мс. (1,00 видеокадр)
Время предзагрузки промежутка    : 500  мс.
pic pic pic pic
Для увеличения картинки щелкните мышкой по превью


Этот торрент недоступен для скачивания без регистрации, однако доступен по публичной magnet-ссылке (источники с публичных трекеров). Перед использованием ссылки прочтите, пожалуйста Пользовательское соглашение, а также как можно дольше оставайтесь на раздаче! Для того, чтобы скачать сам торрент-файл (который видит больше источников), а также для того, чтобы поблагодарить релизера, вам необходимо зарегистрироваться. Если регистрироваться лень - вы можете также попробовать скачать релиз по нашим партнерским ссылкам ниже.

[underverse.su].t46206.torrent
Трекер: Зарегистрирован   [ 13.11.2014 11:04 ]  

Статус: T временная (by Ведьмочка at 13.11.2014 11:34)
Поблагодарили: пока никто не поблагодарил...
Тип торрента: публичный - доступные источники с открытых трекеров: 
Размер: 1,46 GB (занимает 0,33 DVDR, для записи нужно 1 болванка DVDR/RW)
 
 
Похожие темы
Форум Тема Автор Торрент Отв. Посл. сооб.
T Зарубежное кино [DVDRip, Low-Res HDRip, и т.д.] Экстрасенсы / Утешение / Solace (Афонсо Пойарт / Afonso Poyart) [2015 г., триллер, детектив, BDRip-AVC] Dub (iTunes) + Original (Eng) + Sub (Eng) 90ytr90
82 | 2

0 | 225

10

18.11.2016 15:24

T Зарубежное кино [DVDRip, Low-Res HDRip, и т.д.] Экстрасенсы / Утешение / Solace (Афонсо Пойарт / Afonso Poyart) [2015 г., триллер, детектив, BDRip-AVC] Dub (iTunes) + Sub (Eng) 90ytr90
191 | 5

0 | 207

6

18.11.2016 15:20

T Зарубежное кино [DVDRip, Low-Res HDRip, и т.д.] Экстрасенсы / Утешение / Solace (Афонсо Пойарт / Afonso Poyart) [2015 г., триллер, детектив, HDRip] Dub (iTunes) 90ytr90
121 | 1

0 | 187

3

18.11.2016 15:05

Зарубежное кино [DVDRip, Low-Res HDRip, и т.д.] Экстрасенс 2: Лабиринты разума / Mindscape / Anna (Хорхе С. Дорадо) [2013 г., триллер, драма, WEB-DLRip] VO [datynet] Паукан
0 | 0

0 | 2499

36

12.05.2014 08:42

T Зарубежное кино [DVDRip, Low-Res HDRip, и т.д.] Экстрасенс 2: Лабиринты разума / Mindscape / Anna (Хорхе С. Дорадо / Jorge Dorado) [2013 г., триллер, драма, HDRip] Dub (чистый звук) 90ytr90
3 | 0

0 | 440

23

24.11.2014 18:10

Зарубежное кино [DVDRip, Low-Res HDRip, и т.д.] Экстрасенсы / Утешение / Solace (Афонсо Пойарт / Afonso Poyart) [2015 г., триллер, детектив, HDRip] MVO (ProSound) 90ytr90
182 | 1

1 | 881

45

26.02.2016 14:57

T Зарубежное кино [DVDRip, Low-Res HDRip, и т.д.] Экстрасенсы / Утешение / Solace (Афонсо Пойарт) [2015 г., триллер, детектив, HDRip] Dub makkol
32 | 0

0 | 823

89

14.04.2016 13:30

Зарубежное кино HQ Экстрасенс / The Awakening (Ник Мерфи) [2011 г., ужасы, триллер, HDRip] (Rus, Eng) HQ Underverse HQ Underverse
0 | 0

1 | 2008

29

03.04.2012 12:30

Информационно-аналитические передачи Экстрасенсы ведут расследование - 4 Сезона (50 выпусков) (Олег Чаурс) [2011 - 2013, Паранормальное шоу, SATRip] uzi2009
0 | 0

0 | 1193

3

11.05.2014 19:41

Другие фильмы Экстрасенсы ведут расследование / Сезон 5 / Серии 1-10 из 10 (Ирина Сметанова) [2014 г., Паронормальное шоу, WEB-DLRip] ya_malder
6 | 0

1 | 1389

4

04.02.2015 04:32


Яндекс.Метрика powered by Sphinx


В Н И М А Н И Е
Сайт не распространяет и не хранит электронные версии произведений, а лишь бесплатно и без коммерческой выгоды (не требуя взамен платы,
SMS и т.д.) предоставляет доступ к создаваемому пользователями каталогу ссылок на торрент-файлы, которые содержат только списки хеш-сумм.
Убедительная просьба с жалобами обращаться напрямую к пользователю, разместившему торрент файл.

Вверх