Loading...
Error

Пираты / Pirates / Hae-jeok: Ba-da-ro gan san-jeok (Сок Хун Ли) [2014 г., История, Комедия, Приключения, HDTVRip] DVO (RUS, GREEN TEA)

Статистика раздачи
Размер:  1,45 GB   |    Зарегистрирован:  2 года   |    Скачан:  53 раза

Полного источника не было: 1 год

Сидов:  0  |  0 KB/s  ]   Личеров:  0  |  0 KB/s  ]

* - сиды/пиры с внешних источников

   
 
Автор Сообщение

Ведьмочка Пол:Жен

12-Ноя-2014 14:12

Пираты / Pirates / Hae-jeok: Ba-da-ro gan san-jeok


Страна: Южная Корея
Год выпуска: 2014
Жанр: История, Комедия, Приключения
Продолжительность: 02:09:44
Режиссёр: Сок Хун Ли
В ролях: Нам Гил Ким, Ё Чжин Сон, Хэ Чжин Ю, Кён Ён Ли, Тхэ У Ким, Чхоль Мин Пак, Вон Хэ Ким, Даль Хван Чо, Чжон Гын Син, Соль Ри Чхве, Даль Су О, И Кён Ли, Нэ Сан Ан, Хи Бон Чо, Сон Хва Чжон
Сюжет фильма:
Фильм рассказывает о эпохе Чосон. Банда пиратов под предводительством Сон Е Чжин соперничает с бандой горных разбойников, спустившихся на море в поисках фортуны, во главе с Ким Нам Гилем. Их ждет охота за призраком кита, проглотившем корабль с сокровищами, самым ценным из которых является «королевская печать» — подарок китайского императора корейскому.

Озвучивание:
  • Любительский, Двухголосный, Русский [GREEN TEA]

Качество видео: HDTVRip
Формат: AVI

Видео: XviD, 720x304 (2.35:1), 23.976 fps, ~1400 Кбит/сек
Аудио: MP3, 192 Кбит/сек, 2 Канала, 48.0 КГц



General
Complete name : \Pirates.2014.L2.HDTVRip.avi
Format : AVI
Format/Info : Audio Video Interleave
File size : 1.45 GiB
Duration : 2h 9mn
Overall bit rate : 1 601 Kbps
Writing application : VirtualDubMod 1.5.10.3 | www.virtualdub-fr.org || (build 2550/release)
Writing library : VirtualDubMod build 2550/release

Video
ID : 0
Format : MPEG-4 Visual
Format profile : Advanced Simple@L5
Format settings, BVOP : 2
Format settings, QPel : No
Format settings, GMC : No warppoints
Format settings, Matrix : Default (MPEG)
Codec ID : XVID
Codec ID/Hint : XviD
Duration : 2h 9mn
Bit rate : 1 400 Kbps
Width : 720 pixels
Height : 304 pixels
Display aspect ratio : 2.35:1
Frame rate : 23.976 fps
Color space : YUV
Chroma subsampling : 4:2:0
Bit depth : 8 bits
Scan type : Progressive
Compression mode : Lossy
Bits/(Pixel*Frame) : 0.267
Stream size : 1.27 GiB (87%)
Writing library : XviD 1.2.1 (UTC 2008-12-04)

Audio
ID : 1
Format : MPEG Audio
Format version : Version 1
Format profile : Layer 3
Mode : Joint stereo
Codec ID : 55
Codec ID/Hint : MP3
Duration : 2h 9mn
Bit rate mode : Constant
Bit rate : 192 Kbps
Channel(s) : 2 channels
Sampling rate : 48.0 KHz
Compression mode : Lossy
Delay relative to video : 13ms
Stream size : 178 MiB (12%)
Alignment : Split accross interleaves
Interleave, duration : 42 ms (1.00 video frame)
Interleave, preload duration : 500 ms


picpicpic
Для увеличения картинки щелкните мышкой по превью

Этот торрент недоступен для скачивания без регистрации, однако доступен по публичной magnet-ссылке (источники с публичных трекеров). Перед использованием ссылки прочтите, пожалуйста Пользовательское соглашение, а также как можно дольше оставайтесь на раздаче! Для того, чтобы скачать сам торрент-файл (который видит больше источников), а также для того, чтобы поблагодарить релизера, вам необходимо зарегистрироваться. Если регистрироваться лень - вы можете также попробовать скачать релиз по нашим партнерским ссылкам ниже.

[underverse.su].t46182.torrent
Трекер: Зарегистрирован   [ 12.11.2014 14:12 ]  

Статус: проверено (by Ведьмочка at 12.11.2014 14:12)
Поблагодарили: 3 человека
Тип торрента: публичный - доступные источники с открытых трекеров: 
Размер: 1,45 GB (занимает 1/3 DVDR, для записи нужно 1 болванка DVDR/RW)
 
 

Яндекс.Метрика powered by Sphinx


В Н И М А Н И Е
Сайт не распространяет и не хранит электронные версии произведений, а лишь бесплатно и без коммерческой выгоды (не требуя взамен платы,
SMS и т.д.) предоставляет доступ к создаваемому пользователями каталогу ссылок на торрент-файлы, которые содержат только списки хеш-сумм.
Убедительная просьба с жалобами обращаться напрямую к пользователю, разместившему торрент файл.

Вверх