Loading...
Error

Два дня, одна ночь / Deux Jours, Une Nuit (Жан-Пьер Дарденн, Люк Дарденн) [2014 г., Драма, HDRip] MVO (RUS, Лицензия)

Статистика раздачи
Размер:  1,45 GB   |    Зарегистрирован:  2 года   |    Скачан:  18 раз

Полного источника не было: 4 месяца 26 дней

Сидов:  0  |  0 KB/s  ]   Личеров:  0  |  0 KB/s  ]

* - сиды/пиры с внешних источников

   
 
Автор Сообщение

Ведьмочка Пол:Жен

12-Ноя-2014 13:52

Два дня, одна ночь / Deux Jours, Une Nuit


Страна: Бельгия , Франция , Италия
Год выпуска: 2014
Жанр: Драма
Продолжительность: 01:35:08
Режиссёр: Жан-Пьер Дарденн, Люк Дарденн
В ролях: Марион Котийяр, Фабрицио Ронджоне, Пили Груан, Саймон Кодри, Катрин Сале, Батисте Сорнен, Ален Элуа, Мириам Акеддиу, Фабьен Шаша, Тимур Магомедгаджиев
Сюжет фильма:
Судьба Сандры зависит от решения нескольких человек, вынужденных выбирать между ней и деньгами. Пытаясь склонить людей на свою сторону, она ищет в их сердцах то, что они, кажется, давно потеряли.

Озвучивание:
  • Профессиональный, Многоголосный, Русский [Лицензия]

Качество видео: HDRip
Формат: AVI

Видео: XviD, 688x368 (1.85:1), 23.976 fps, ~1718 Кбит/сек
Аудио: AC-3, 448 Кбит/сек, 6 Каналов, 48.0 КГц

Rip by:



General
Complete name :\Two.Days.One.Night.2014_HDRip__[scarabey.org].avi
Format : AVI
Format/Info : Audio Video Interleave
File size : 1.45 GiB
Duration : 1h 35mn
Overall bit rate : 2 175 Kbps
Writing application : VirtualDubMod 1.5.10.3 | www.virtualdub-fr.org || (build 2550/release)
Writing library : VirtualDubMod build 2550/release

Video
ID : 0
Format : MPEG-4 Visual
Format profile : Advanced Simple@L5
Format settings, BVOP : 1
Format settings, QPel : No
Format settings, GMC : No warppoints
Format settings, Matrix : Custom
Codec ID : XVID
Codec ID/Hint : XviD
Duration : 1h 35mn
Bit rate : 1 718 Kbps
Width : 688 pixels
Height : 368 pixels
Display aspect ratio : 1.85:1
Frame rate : 23.976 fps
Color space : YUV
Chroma subsampling : 4:2:0
Bit depth : 8 bits
Scan type : Progressive
Compression mode : Lossy
Bits/(Pixel*Frame) : 0.283
Stream size : 1.14 GiB (79%)
Writing library : XviD 73

Audio
ID : 1
Format : AC-3
Format/Info : Audio Coding 3
Mode extension : CM (complete main)
Format settings, Endianness : Big
Codec ID : 2000
Duration : 1h 35mn
Bit rate mode : Constant
Bit rate : 448 Kbps
Channel(s) : 6 channels
Channel positions : Front: L C R, Side: L R, LFE
Sampling rate : 48.0 KHz
Bit depth : 16 bits
Compression mode : Lossy
Stream size : 305 MiB (21%)
Alignment : Split accross interleaves
Interleave, duration : 42 ms (1.00 video frame)
Interleave, preload duration : 500 ms


picpicpic
Для увеличения картинки щелкните мышкой по превью

Этот торрент недоступен для скачивания без регистрации, однако доступен по публичной magnet-ссылке (источники с публичных трекеров). Перед использованием ссылки прочтите, пожалуйста Пользовательское соглашение, а также как можно дольше оставайтесь на раздаче! Для того, чтобы скачать сам торрент-файл (который видит больше источников), а также для того, чтобы поблагодарить релизера, вам необходимо зарегистрироваться. Если регистрироваться лень - вы можете также попробовать скачать релиз по нашим партнерским ссылкам ниже.

[underverse.su].t46180.torrent
Трекер: Зарегистрирован   [ 12.11.2014 13:52 ]  

Статус: проверено (by Ведьмочка at 12.11.2014 13:52)
Поблагодарили: пока никто не поблагодарил...
Тип торрента: публичный - доступные источники с открытых трекеров: 
Размер: 1,45 GB (занимает 1/3 DVDR, для записи нужно 1 болванка DVDR/RW)
 
 
Похожие темы
Форум Тема Автор Торрент Отв. Посл. сооб.
Зарубежное кино [DVDRip, Low-Res HDRip, и т.д.] Два дня, одна ночь / Deux Jours, Une Nuit (Жан-Пьер Дарденн, Люк Дарденн) [2014 г., Драма, BDRip] MVO (RUS, Лицензия) Ведьмочка
14 | 1

0 | 451

9

12.11.2014 13:31

Зарубежное кино [DVDRip, Low-Res HDRip, и т.д.] Два дня, одна ночь / Deux Jours, Une Nuit (Жан-Пьер Дарденн, Люк Дарденн) [2014 г., Драма, HDRip-AVC] MVO (RUS, Лицензия) + Subs (ENG) Ведьмочка
1 | 0

0 | 580

3

12.11.2014 13:42

Зарубежное кино [HDDVDRip / BDRip / WEB-DL / HDTV 1080/720р] Два дня, одна ночь / Deux Jours, Une Nuit (Жан-Пьер Дарденн, Люк Дарденн) [2014 г., Драма, BDRip 1080p] MVO (RUS, Лицензия) + Original (FRA) + Subs (ENG) Ведьмочка
5 | 0

0 | 467

4

12.11.2014 12:36

Зарубежное кино [HDDVDRip / BDRip / WEB-DL / HDTV 1080/720р] Два дня, одна ночь / Deux Jours, Une Nuit (Жан-Пьер Дарденн, Люк Дарденн) [2014 г., Драма, BDRip 720p] MVO (RUS, Лицензия) + Original (FRA) + Subs (ENG) Ведьмочка
19 | 2

0 | 604

4

12.11.2014 13:23


Яндекс.Метрика powered by Sphinx


В Н И М А Н И Е
Сайт не распространяет и не хранит электронные версии произведений, а лишь бесплатно и без коммерческой выгоды (не требуя взамен платы,
SMS и т.д.) предоставляет доступ к создаваемому пользователями каталогу ссылок на торрент-файлы, которые содержат только списки хеш-сумм.
Убедительная просьба с жалобами обращаться напрямую к пользователю, разместившему торрент файл.

Вверх