Loading...
Error

Укради мою жену / Life of Crime (Дэниэл Шехтер) [2013 г., Комедия, Криминал, HDRip] Dub (RUS, Лицензия)

Статистика раздачи
Размер:  1,46 GB   |    Зарегистрирован:  2 года   |    Скачан:  32 раза
Сидов:  1  |  0 KB/s  ]   Личеров:  0  |  0 KB/s  ]

* - сиды/пиры с внешних источников

   
 
Автор Сообщение

Ведьмочка Пол:Жен

12-Ноя-2014 09:49

Укради мою жену / Life of Crime
«Right target. Wrong woman»


Страна: США
Год выпуска: 2013
Жанр: Комедия, Криминал
Продолжительность: 01:40:49
Режиссёр: Дэниэл Шехтер
В ролях: Дженнифер Энистон, Мос Деф, Айла Фишер, Уилл Форте, Марк Бун Джуниор, Тим Роббинс, Джон Хоукс, Клеа Льюис, Чарли Тахэн, Кевин Корригэн
Сюжет фильма:
Орделл Робб и Луис Гарра познакомились за решеткой, сев за одинаковые преступления — угон. Теперь они на свободе и готовят крупное дело: похищение жены детройтского девелопера с целью получения выкупа. Но им и в голову не могло прийти, что бедный, как церковная мышь, супруг не захочет вызволять благоверную. И тогда наступает время для запасного плана: настоящего убийства не без помощи жаждущей мести домохозяйки.

Озвучивание:
  • Дублированный, Русский [Лицензия]

Качество видео: HDRip
Формат: AVI

Видео: XviD, 720x304 (2.35:1), 23.976 fps, ~1616 Кбит/сек
Аудио: AC-3, 448 Кбит/сек, 6 Каналов, 48.0 КГц



General
Complete name : \Life.of.Crime.2014.HDRip.1.46.avi
Format : AVI
Format/Info : Audio Video Interleave
File size : 1.46 GiB
Duration : 1h 40mn
Overall bit rate : 2 073 Kbps
Movie name : L
Writing application : V

Video
ID : 0
Format : MPEG-4 Visual
Format profile : Advanced Simple@L5
Format settings, BVOP : 2
Format settings, QPel : No
Format settings, GMC : No warppoints
Format settings, Matrix : Custom
Codec ID : XVID
Codec ID/Hint : XviD
Duration : 1h 40mn
Bit rate : 1 616 Kbps
Width : 720 pixels
Height : 304 pixels
Display aspect ratio : 2.35:1
Frame rate : 23.976 fps
Color space : YUV
Chroma subsampling : 4:2:0
Bit depth : 8 bits
Scan type : Progressive
Compression mode : Lossy
Bits/(Pixel*Frame) : 0.308
Stream size : 1.14 GiB (78%)
Writing library : XviD 1.2.1 (UTC 2008-12-04)

Audio
ID : 1
Format : AC-3
Format/Info : Audio Coding 3
Mode extension : CM (complete main)
Format settings, Endianness : Big
Codec ID : 2000
Duration : 1h 40mn
Bit rate mode : Constant
Bit rate : 448 Kbps
Channel(s) : 6 channels
Channel positions : Front: L C R, Side: L R, LFE
Sampling rate : 48.0 KHz
Bit depth : 16 bits
Compression mode : Lossy
Stream size : 323 MiB (22%)
Alignment : Split accross interleaves
Interleave, duration : 42 ms (1.00 video frame)
Interleave, preload duration : 500 ms


picpicpic
Для увеличения картинки щелкните мышкой по превью

Этот торрент недоступен для скачивания без регистрации, однако доступен по публичной magnet-ссылке (источники с публичных трекеров). Перед использованием ссылки прочтите, пожалуйста Пользовательское соглашение, а также как можно дольше оставайтесь на раздаче! Для того, чтобы скачать сам торрент-файл (который видит больше источников), а также для того, чтобы поблагодарить релизера, вам необходимо зарегистрироваться. Если регистрироваться лень - вы можете также попробовать скачать релиз по нашим партнерским ссылкам ниже.

[underverse.su].t46167.torrent
Трекер: Зарегистрирован   [ 12.11.2014 09:49 ]  

Статус: проверено (by Ведьмочка at 12.11.2014 09:53)
Поблагодарили: 2 человека
Тип торрента: публичный - доступные источники с открытых трекеров: 
Размер: 1,46 GB (занимает 0,33 DVDR, для записи нужно 1 болванка DVDR/RW)
 
 
Похожие темы
Форум Тема Автор Торрент Отв. Посл. сооб.
Зарубежное кино [DVDRip, Low-Res HDRip, и т.д.] Укради мою жену / Life of Crime (Дэниэл Шехтер) [2013 г., Комедия, Криминал, HDRip] MVO (RUS, Paradox) Ведьмочка
14 | 0

0 | 736

20

19.10.2014 20:58

Зарубежное кино [DVDRip, Low-Res HDRip, и т.д.] Укради мою жену / Life of Crime (Дэниэл Шехтер) [2013 г., Комедия, Криминал, BDRip-AVC] Dub (RUS, Лицензия) + Subs (ENG) Ведьмочка
32 | 1

0 | 674

32

14.11.2014 03:24

Зарубежное кино [DVDRip, Low-Res HDRip, и т.д.] Укради мою жену / Life of Crime (Дэниэл Шехтер / Daniel Schechter) [2013 г., криминал, драма, комедия, BDRip-AVC] Dub + Original (Eng) + Sub (Eng) 90ytr90
14 | 0

0 | 417

7

21.11.2014 19:19

Зарубежное кино [HDDVDRip / BDRip / WEB-DL / HDTV 1080/720р] Укради мою жену / Life of Crime (Дэниэл Шехтер) [2013 г., Комедия, Криминал, BDRip 1080p] MVO (RUS, Paradox) + Original (ENG) + Subs (ENG) Ведьмочка
2 | 1

0 | 755

6

18.10.2014 06:18

Зарубежное кино [HDDVDRip / BDRip / WEB-DL / HDTV 1080/720р] Укради мою жену / Life of Crime (Дэниэл Шехтер) [2013 г., Комедия, Криминал, BDRip 720p] MVO (RUS, Paradox) + Original (ENG) + Subs (RUS, ENG) Ведьмочка
2 | 0

0 | 759

4

19.10.2014 09:10

T Зарубежное кино [HDDVDRip / BDRip / WEB-DL / HDTV 1080/720р] Укради мою жену / Life of Crime (Дэниэл Шехтер) [2013 г., Комедия, Криминал, BDRip 720p] Dub (RUS, iTunes Russia) + Original (ENG) Ведьмочка
0 | 0

0 | 711

12

01.11.2014 04:42

Зарубежное кино [HDDVDRip / BDRip / WEB-DL / HDTV 1080/720р] Укради мою жену / Life of Crime (Дэниэл Шехтер) [2013 г., Комедия, Криминал, BDRip 720p] Dub (RUS, Лицензия) Ведьмочка
2 | 0

0 | 591

8

12.11.2014 07:27

Зарубежное кино [HDDVDRip / BDRip / WEB-DL / HDTV 1080/720р] Укради мою жену / Life of Crime (Дэниэл Шехтер) [2013 г., Комедия, Криминал, BDRip 1080p] 2-Dub (RUS, Лицензия) + Original (ENG) + Subs (ENG) Ведьмочка
0 | 1

0 | 597

8

12.11.2014 09:40


Яндекс.Метрика powered by Sphinx


В Н И М А Н И Е
Сайт не распространяет и не хранит электронные версии произведений, а лишь бесплатно и без коммерческой выгоды (не требуя взамен платы,
SMS и т.д.) предоставляет доступ к создаваемому пользователями каталогу ссылок на торрент-файлы, которые содержат только списки хеш-сумм.
Убедительная просьба с жалобами обращаться напрямую к пользователю, разместившему торрент файл.

Вверх