Loading...
Error

Планета обезьян: Революция / Dawn of the Planet of the Apes (Мэтт Ривз) [2014 г., Фантастика, Боевик, Драма, HDRip] Dub (RUS, Лицензия) + AVO (RUS, Д. Есарев) + Original (ENG) + Subs (RUS, ENG)

Статистика раздачи
Размер:  2,75 GB   |    Зарегистрирован:  2 года 2 месяца   |    Скачан:  17 раз

Полного источника не было: 15 дней

Сидов:  0  |  0 KB/s  ]   Личеров:  0  |  0 KB/s  ]

* - сиды/пиры с внешних источников

   
 
Автор Сообщение

Ведьмочка Пол:Жен

12-Ноя-2014 04:20

Планета обезьян: Революция / Dawn of the Planet of the Apes
«Молитесь за мир, готовьтесь к войне»


Страна: США
Год выпуска: 2014
Жанр: Фантастика, Боевик, Драма
Продолжительность: 02:10:42
Режиссёр: Мэтт Ривз
В ролях: Энди Серкис, Джейсон Кларк, Гари Олдман, Кери Рассел, Тоби Кеббелл, Коди, Смит-МакФи, Кирк Асеведо, Ник Тёрстон, Терри Нотари, Карин Коновал
Сюжет фильма:
Численность генетически модифицированных обезьян, возглавляемых Цезарем, продолжает увеличиваться, но обезьянам угрожают люди, которым удалось выжить во время ужасной эпидемии десятилетней давности. Поначалу между соперниками устанавливается хрупкий мир, но он оказывается недолговечным. Обезьяны и люди находятся на грани войны, в ходе которой станет понятно, кто из них в будущем станет безраздельно править планетой.

Озвучивание:
  • Дублированный, Русский [Лицензия]
  • Авторский, Одноголосный, Русский [Д. Есарев]
  • Оригинал, Английский

Качество видео: HDRip
Формат: AVI

Видео: XviD, 720x384 (1.85:1), 23.976 fps, ~1658 Кбит/сек
Аудио #1: AC-3, 448 Кбит/сек, 6 Каналов, 48.0 КГц
Аудио #2: AC-3, 448 Кбит/сек, 6 Каналов, 48.0 КГц
Аудио #3: AC-3, 448 Кбит/сек, 6 Каналов, 48.0 КГц

Субтитры #1: SRT [Русские, Внешние, Форсированные на речь обезьян]
Субтитры #2: SRT [Русские, Внешние, Полные]
Субтитры #3: SRT [Английские, Внешние, Форсированные]
Субтитры #4: SRT [Английские, Внешние, Полные]

Rip by:



General
Complete name : \Dawn.of.the.Planet.of.the.Apes.2014.HDRip.ExKinoRay\Dawn.of.the.Planet.of.the.Apes.2014.HDRip.ExKinoRay.avi
Format : AVI
Format/Info : Audio Video Interleave
Format profile : OpenDML
File size : 2.75 GiB
Duration : 2h 10mn
Overall bit rate : 3 023 Kbps
Director : ExKinoRay
Writing application : VirtualDubMod 1.5.10.2 (build 2540/release)
Writing library : VirtualDubMod build 2540/release

Video
ID : 0
Format : MPEG-4 Visual
Format profile : Advanced Simple@L5
Format settings, BVOP : 1
Format settings, QPel : No
Format settings, GMC : No warppoints
Format settings, Matrix : Custom
Codec ID : XVID
Codec ID/Hint : XviD
Duration : 2h 10mn
Bit rate : 1 658 Kbps
Width : 720 pixels
Height : 384 pixels
Display aspect ratio : 1.85:1
Frame rate : 23.976 fps
Color space : YUV
Chroma subsampling : 4:2:0
Bit depth : 8 bits
Scan type : Progressive
Compression mode : Lossy
Bits/(Pixel*Frame) : 0.250
Stream size : 1.51 GiB (55%)
Writing library : XviD 1.2.1 (UTC 2008-12-04)

Audio #1
ID : 1
Format : AC-3
Format/Info : Audio Coding 3
Mode extension : CM (complete main)
Format settings, Endianness : Big
Codec ID : 2000
Duration : 2h 10mn
Bit rate mode : Constant
Bit rate : 448 Kbps
Channel(s) : 6 channels
Channel positions : Front: L C R, Side: L R, LFE
Sampling rate : 48.0 KHz
Bit depth : 16 bits
Compression mode : Lossy
Stream size : 418 MiB (15%)
Alignment : Split accross interleaves
Interleave, duration : 42 ms (1.00 video frame)
Interleave, preload duration : 500 ms
Title : Dub

Audio #2
ID : 2
Format : AC-3
Format/Info : Audio Coding 3
Mode extension : CM (complete main)
Format settings, Endianness : Big
Codec ID : 2000
Duration : 2h 10mn
Bit rate mode : Constant
Bit rate : 448 Kbps
Channel(s) : 6 channels
Channel positions : Front: L C R, Side: L R, LFE
Sampling rate : 48.0 KHz
Bit depth : 16 bits
Compression mode : Lossy
Stream size : 418 MiB (15%)
Alignment : Split accross interleaves
Interleave, duration : 42 ms (1.00 video frame)
Interleave, preload duration : 500 ms

Audio #3
ID : 3
Format : AC-3
Format/Info : Audio Coding 3
Mode extension : CM (complete main)
Format settings, Endianness : Big
Codec ID : 2000
Duration : 2h 10mn
Bit rate mode : Constant
Bit rate : 448 Kbps
Channel(s) : 6 channels
Channel positions : Front: L C R, Side: L R, LFE
Sampling rate : 48.0 KHz
Bit depth : 16 bits
Compression mode : Lossy
Stream size : 418 MiB (15%)
Alignment : Split accross interleaves
Interleave, duration : 42 ms (1.00 video frame)
Interleave, preload duration : 500 ms


picpicpic
Для увеличения картинки щелкните мышкой по превью

Этот торрент недоступен для скачивания без регистрации, однако доступен по публичной magnet-ссылке (источники с публичных трекеров). Перед использованием ссылки прочтите, пожалуйста Пользовательское соглашение, а также как можно дольше оставайтесь на раздаче! Для того, чтобы скачать сам торрент-файл (который видит больше источников), а также для того, чтобы поблагодарить релизера, вам необходимо зарегистрироваться. Если регистрироваться лень - вы можете также попробовать скачать релиз по нашим партнерским ссылкам ниже.

[underverse.su].t46157.torrent
Трекер: Зарегистрирован   [ 12.11.2014 04:20 ]  

Статус: проверено (by Ведьмочка at 12.11.2014 06:00)
Поблагодарили: пока никто не поблагодарил...
Тип торрента: публичный - доступные источники с открытых трекеров: 
Размер: 2,75 GB (занимает 0,63 DVDR, для записи нужно 1 болванка DVDR/RW)
 
 
Похожие темы
Форум Тема Автор Торрент Отв. Посл. сооб.
Зарубежное кино [DVDRip, Low-Res HDRip, и т.д.] Планета обезьян / Planet of the Apes (Тим Бёртон) [2001 г., Фантастика, боевик, триллер, приключения, HDRip] Dub 90ytr90
4 | 0

0 | 999

32

26.12.2012 17:06

Зарубежное кино [DVDRip, Low-Res HDRip, и т.д.] Планета обезьян / Planet of the Apes (Франклин Дж Шаффнер) [1968 г., фантастика, приключения, BDRip] Dub + Original 90ytr90
2 | 1

0 | 598

5

26.12.2012 17:26

Зарубежное кино [DVDRip, Low-Res HDRip, и т.д.] Планета обезьян: Революция / Dawn of the Planet of the Apes (Мэтт Ривз) [2014 г., Фантастика, Боевик, Драма, BDRip-AVC] Dub (RUS, Лицензия) + AVO (RUS, Д. Есарев) + Dub (UKR, Лицензия) + Original... Ведьмочка
1 | 0

0 | 613

9

12.11.2014 02:51

Зарубежное кино [DVDRip, Low-Res HDRip, и т.д.] Планета обезьян: Революция / Dawn of the Planet of the Apes (Мэтт Ривз / Matt Reeves) [2014, Фантастика, боевик, драма, BDRip-AVC] Dub (RUS, BD CEE) + Original (ENG) + Subs (RUS, ENG, UKR) viktor.r-79
4 | 0

0 | 803

29

13.11.2014 10:37

Зарубежное кино [DVDRip, Low-Res HDRip, и т.д.] Планета обезьян: Революция / Dawn of the Planet of the Apes (Мэтт Ривз / Matt Reeves) [2014 г., фантастика, боевик, драма, HDRip] Dub 90ytr90
117 | 2

0 | 495

30

24.11.2014 16:54

Зарубежное кино [DVDRip, Low-Res HDRip, и т.д.] Планета обезьян: Революция / Dawn of the Planet of the Apes (Мэтт Ривз / Matt Reeves) [2014 г., фантастика, боевик, драма, HDRip] Dub 90ytr90
25 | 0

0 | 392

17

24.11.2014 17:34

Зарубежное кино [DVD / HDDVD / BD / Remux] Планета обезьян / Planet of the Apes (Тим Бертон / Tim Burton) [2001, фантастика, боевик, триллер, приключения, BDRemux 1080p] Dub Sub Rus + Original Eng uzi2009
2 | 0

0 | 775

8

29.01.2014 14:01

Зарубежное кино [DVD / HDDVD / BD / Remux] Планета обезьян: Революция / Dawn of the Planet of the Apes (Мэтт Ривз / Matt Reeves) [2014., Фантастика, боевик, драма, Blu-ray CEE 1080p] Dub (RUS) + Original (ENG) + (CZE, HUN, TUR, POL, UKR ) +... viktor.r-79
0 | 0

0 | 1012

7

11.11.2014 05:16

Зарубежное кино [DVD / HDDVD / BD / Remux] Планета обезьян: Революция / Dawn of the Planet of the Apes (Мэтт Ривз / Matt Reeves) [2014., Фантастика, боевик, драма, BDRemux 1080p] Dub (RUS) + Original (ENG) + (UKR ) + Subs (RUS, ENG, UKR) viktor.r-79
0 | 0

0 | 931

4

11.11.2014 09:34

Зарубежное кино [HDDVDRip / BDRip / WEB-DL / HDTV 1080/720р] Планета обезьян: Революция / Dawn of the Planet of the Apes (Мэтт Ривз / Matt Reeves) [2014, Фантастика, боевик, драма, BDRip 720] Dub (RUS) + Original (ENG) + Subs (RUS, ENG) viktor.r-79
1 | 0

2 | 1719

17

11.11.2014 06:11


Яндекс.Метрика powered by Sphinx


В Н И М А Н И Е
Сайт не распространяет и не хранит электронные версии произведений, а лишь бесплатно и без коммерческой выгоды (не требуя взамен платы,
SMS и т.д.) предоставляет доступ к создаваемому пользователями каталогу ссылок на торрент-файлы, которые содержат только списки хеш-сумм.
Убедительная просьба с жалобами обращаться напрямую к пользователю, разместившему торрент файл.

Вверх