Loading...
Error

Планета обезьян: Революция / Dawn of the Planet of the Apes (Мэтт Ривз) [2014 г., Фантастика, Боевик, Драма, BDRip-AVC] Dub (RUS, Лицензия) + AVO (RUS, Д. Есарев) + Dub (UKR, Лицензия) + Original (ENG) + Subs (RUS, ENG, UKR)

Статистика раздачи
Размер:  3,22 GB   |    Зарегистрирован:  2 года   |    Скачан:  9 раз

Полного источника не было: 1 месяц 16 дней

Сидов:  0  |  0 KB/s  ]   Личеров:  0  |  0 KB/s  ]

* - сиды/пиры с внешних источников

   
 
Автор Сообщение

Ведьмочка Пол:Жен

12-Ноя-2014 02:51

Планета обезьян: Революция / Dawn of the Planet of the Apes
«Молитесь за мир, готовьтесь к войне»


Страна: США
Год выпуска: 2014
Жанр: Фантастика, Боевик, Драма
Продолжительность: 02:10:42
Режиссёр: Мэтт Ривз
В ролях: Энди Серкис, Джейсон Кларк, Гари Олдман, Кери Рассел, Тоби Кеббелл, Коди, Смит-МакФи, Кирк Асеведо, Ник Тёрстон, Терри Нотари, Карин Коновал
Сюжет фильма:
Численность генетически модифицированных обезьян, возглавляемых Цезарем, продолжает увеличиваться, но обезьянам угрожают люди, которым удалось выжить во время ужасной эпидемии десятилетней давности. Поначалу между соперниками устанавливается хрупкий мир, но он оказывается недолговечным. Обезьяны и люди находятся на грани войны, в ходе которой станет понятно, кто из них в будущем станет безраздельно править планетой.

Озвучивание:
  • Дублированный, Русский [Лицензия]
  • Авторский, Одноголосный, Русский [Д. Есарев]
  • Дублированный, Украинский [Лицензия]
  • Оригинал, Английский

Качество видео: BDRip-AVC
Формат: MKV

Видео: AVC, 1024x554 (16:9), 23.976 fps, ~1746 Кбит/сек
Аудио #1: AC-3, 448 Кбит/сек, 6 Каналов, 48.0 КГц
Аудио #2: AC-3, 448 Кбит/сек, 6 Каналов, 48.0 КГц
Аудио #3: AC-3, 448 Кбит/сек, 6 Каналов, 48.0 КГц
Аудио #4: AC-3, 448 Кбит/сек, 6 Каналов, 48.0 КГц

Субтитры #1: UTF-8 [Русские, Форсированные на речь обезьян]
Субтитры #2: UTF-8 [Русские, Полные]
Субтитры #3: UTF-8 [Украинские, Форсированные на речь обезьян]
Субтитры #4: UTF-8 [Украинские, Полные]
Субтитры #5: UTF-8 [Английские]

Rip by:



General
Unique ID : 197348625794542814699736557413633188443 (0x9477F6796A1C29D3A617CC955115625B)
Complete name : \Planeta.obezian.Revoljcyia.2014.x264.BDRip.(AVC)-MediaClub.mkv
Format : Matroska
Format version : Version 2
File size : 3.22 GiB
Duration : 2h 10mn
Overall bit rate : 3 539 Kbps
Movie name : Релиз от MediaClub (konstantin49)
Encoded date : UTC 2014-11-11 23:29:14
Writing application : mkvmerge v5.8.0 ('No Sleep / Pillow') built on Sep 2 2012 15:37:04
Writing library : libebml v1.2.3 + libmatroska v1.3.0

Video
ID : 1
Format : AVC
Format/Info : Advanced Video Codec
Format profile : High@L4.1
Format settings, CABAC : Yes
Format settings, ReFrames : 8 frames
Codec ID : V_MPEG4/ISO/AVC
Duration : 2h 10mn
Bit rate : 1 746 Kbps
Width : 1 024 pixels
Height : 554 pixels
Display aspect ratio : 1.85:1
Frame rate mode : Constant
Frame rate : 23.976 fps
Color space : YUV
Chroma subsampling : 4:2:0
Bit depth : 8 bits
Scan type : Progressive
Bits/(Pixel*Frame) : 0.128
Stream size : 1.53 GiB (47%)
Writing library : x264 core 125 r2208 d9d2288
Encoding settings : cabac=1 / ref=8 / deblock=1:-2:-2 / analyse=0x3:0x133 / me=umh / subme=11 / psy=1 / psy_rd=1.00:0.15 / mixed_ref=1 / me_range=48 / chroma_me=1 / trellis=2 / 8x8dct=1 / cqm=0 / deadzone=21,11 / fast_pskip=0 / chroma_qp_offset=-3 / threads=6 / lookahead_threads=1 / sliced_threads=0 / nr=0 / decimate=0 / interlaced=0 / bluray_compat=0 / constrained_intra=0 / bframes=8 / b_pyramid=2 / b_adapt=2 / b_bias=0 / direct=3 / weightb=1 / open_gop=0 / weightp=2 / keyint=240 / keyint_min=23 / scenecut=40 / intra_refresh=0 / rc=2pass / mbtree=0 / bitrate=1746 / ratetol=1.0 / qcomp=0.60 / qpmin=0 / qpmax=69 / qpstep=4 / cplxblur=20.0 / qblur=0.5 / ip_ratio=1.40 / pb_ratio=1.30 / aq=1:1.00
Language : English
Default : Yes
Forced : No

Audio #1
ID : 2
Format : AC-3
Format/Info : Audio Coding 3
Mode extension : CM (complete main)
Format settings, Endianness : Big
Codec ID : A_AC3
Duration : 2h 10mn
Bit rate mode : Constant
Bit rate : 448 Kbps
Channel(s) : 6 channels
Channel positions : Front: L C R, Side: L R, LFE
Sampling rate : 48.0 KHz
Bit depth : 16 bits
Compression mode : Lossy
Stream size : 418 MiB (13%)
Title : Дублированный
Language : Russian
Default : Yes
Forced : No

Audio #2
ID : 3
Format : AC-3
Format/Info : Audio Coding 3
Mode extension : CM (complete main)
Format settings, Endianness : Big
Codec ID : A_AC3
Duration : 2h 10mn
Bit rate mode : Constant
Bit rate : 448 Kbps
Channel(s) : 6 channels
Channel positions : Front: L C R, Side: L R, LFE
Sampling rate : 48.0 KHz
Bit depth : 16 bits
Compression mode : Lossy
Stream size : 418 MiB (13%)
Title : Авторский одноголосый (Д.Есарев)
Language : Russian
Default : No
Forced : No

Audio #3
ID : 4
Format : AC-3
Format/Info : Audio Coding 3
Mode extension : CM (complete main)
Format settings, Endianness : Big
Codec ID : A_AC3
Duration : 2h 10mn
Bit rate mode : Constant
Bit rate : 448 Kbps
Channel(s) : 6 channels
Channel positions : Front: L C R, Side: L R, LFE
Sampling rate : 48.0 KHz
Bit depth : 16 bits
Compression mode : Lossy
Stream size : 418 MiB (13%)
Title : Дублированный
Language : Ukrainian
Default : No
Forced : No

Audio #4
ID : 5
Format : AC-3
Format/Info : Audio Coding 3
Mode extension : CM (complete main)
Format settings, Endianness : Big
Codec ID : A_AC3
Duration : 2h 10mn
Bit rate mode : Constant
Bit rate : 448 Kbps
Channel(s) : 6 channels
Channel positions : Front: L C R, Side: L R, LFE
Sampling rate : 48.0 KHz
Bit depth : 16 bits
Compression mode : Lossy
Stream size : 418 MiB (13%)
Title : Оригинал
Language : English
Default : No
Forced : No

Text #1
ID : 6
Format : UTF-8
Codec ID : S_TEXT/UTF8
Codec ID/Info : UTF-8 Plain Text
Title : на речь обезьян
Language : Russian
Default : Yes
Forced : No

Text #2
ID : 7
Format : UTF-8
Codec ID : S_TEXT/UTF8
Codec ID/Info : UTF-8 Plain Text
Title : полные
Default : No
Forced : No

Text #3
ID : 8
Format : UTF-8
Codec ID : S_TEXT/UTF8
Codec ID/Info : UTF-8 Plain Text
Title : на речь обезьян
Language : Ukrainian
Default : No
Forced : No

Text #4
ID : 9
Format : UTF-8
Codec ID : S_TEXT/UTF8
Codec ID/Info : UTF-8 Plain Text
Title : полные
Language : Ukrainian
Default : No
Forced : No

Text #5
ID : 10
Format : UTF-8
Codec ID : S_TEXT/UTF8
Codec ID/Info : UTF-8 Plain Text
Title : английские
Language : English
Default : No
Forced : No

Menu
00:00:00.000 : en:Chapter 01
00:03:21.159 : en:Chapter 02
00:07:34.912 : en:Chapter 03
00:12:36.547 : en:Chapter 04
00:16:23.565 : en:Chapter 05
00:18:47.042 : en:Chapter 06
00:21:52.477 : en:Chapter 07
00:25:26.691 : en:Chapter 08
00:29:45.867 : en:Chapter 09
00:31:50.617 : en:Chapter 10
00:36:43.743 : en:Chapter 11
00:39:07.553 : en:Chapter 12
00:40:57.163 : en:Chapter 13
00:44:12.232 : en:Chapter 14
00:48:11.722 : en:Chapter 15
00:50:31.528 : en:Chapter 16
00:53:48.016 : en:Chapter 17
00:57:25.316 : en:Chapter 18
01:01:18.466 : en:Chapter 19
01:02:35.376 : en:Chapter 20
01:04:24.068 : en:Chapter 21
01:06:21.727 : en:Chapter 22
01:09:31.333 : en:Chapter 23
01:13:56.974 : en:Chapter 24
01:17:17.924 : en:Chapter 25
01:20:53.390 : en:Chapter 26
01:23:28.753 : en:Chapter 27
01:26:08.997 : en:Chapter 28
01:28:19.252 : en:Chapter 29
01:33:24.390 : en:Chapter 30
01:35:53.122 : en:Chapter 31
01:38:38.621 : en:Chapter 32
01:40:42.536 : en:Chapter 33
01:44:07.574 : en:Chapter 34
01:46:05.567 : en:Chapter 35
01:47:54.468 : en:Chapter 36
01:52:13.977 : en:Chapter 37
01:56:27.480 : en:Chapter 38
02:00:31.015 : en:Chapter 39
02:01:35.579 : en:Chapter 40


picpicpic
Для увеличения картинки щелкните мышкой по превью

Этот торрент недоступен для скачивания без регистрации, однако доступен по публичной magnet-ссылке (источники с публичных трекеров). Перед использованием ссылки прочтите, пожалуйста Пользовательское соглашение, а также как можно дольше оставайтесь на раздаче! Для того, чтобы скачать сам торрент-файл (который видит больше источников), а также для того, чтобы поблагодарить релизера, вам необходимо зарегистрироваться. Если регистрироваться лень - вы можете также попробовать скачать релиз по нашим партнерским ссылкам ниже.

[underverse.su].t46154.torrent
Трекер: Зарегистрирован   [ 12.11.2014 02:51 ]  

Статус: проверено (by Ведьмочка at 12.11.2014 03:07)
Поблагодарили: 1 человек
Тип торрента: публичный - доступные источники с открытых трекеров: 
Размер: 3,22 GB (занимает 0,74 DVDR, для записи нужно 1 болванка DVDR/RW)
 
 
Похожие темы
Форум Тема Автор Торрент Отв. Посл. сооб.
Зарубежное кино [DVDRip, Low-Res HDRip, и т.д.] Планета обезьян / Planet of the Apes (Тим Бёртон) [2001 г., Фантастика, боевик, триллер, приключения, HDRip] Dub 90ytr90
12 | 2

0 | 985

32

26.12.2012 17:06

Зарубежное кино [DVDRip, Low-Res HDRip, и т.д.] Планета обезьян / Planet of the Apes (Франклин Дж Шаффнер) [1968 г., фантастика, приключения, BDRip] Dub + Original 90ytr90
2 | 1

0 | 588

4

26.12.2012 17:26

Зарубежное кино [DVDRip, Low-Res HDRip, и т.д.] Планета обезьян: Революция / Dawn of the Planet of the Apes (Мэтт Ривз) [2014 г., Фантастика, Боевик, Драма, HDRip] Dub (RUS, Лицензия) + AVO (RUS, Д. Есарев) + Original (ENG) + Subs (RUS, ENG) Ведьмочка
9 | 0

0 | 759

16

12.11.2014 04:20

Зарубежное кино [DVDRip, Low-Res HDRip, и т.д.] Планета обезьян: Революция / Dawn of the Planet of the Apes (Мэтт Ривз / Matt Reeves) [2014, Фантастика, боевик, драма, BDRip-AVC] Dub (RUS, BD CEE) + Original (ENG) + Subs (RUS, ENG, UKR) viktor.r-79
4 | 0

0 | 789

29

13.11.2014 10:37

Зарубежное кино [DVDRip, Low-Res HDRip, и т.д.] Планета обезьян: Революция / Dawn of the Planet of the Apes (Мэтт Ривз / Matt Reeves) [2014 г., фантастика, боевик, драма, HDRip] Dub 90ytr90
117 | 2

0 | 479

30

24.11.2014 16:54

Зарубежное кино [DVDRip, Low-Res HDRip, и т.д.] Планета обезьян: Революция / Dawn of the Planet of the Apes (Мэтт Ривз / Matt Reeves) [2014 г., фантастика, боевик, драма, HDRip] Dub 90ytr90
25 | 0

0 | 379

17

24.11.2014 17:34

Зарубежное кино [DVD / HDDVD / BD / Remux] Планета обезьян / Planet of the Apes (Тим Бертон / Tim Burton) [2001, фантастика, боевик, триллер, приключения, BDRemux 1080p] Dub Sub Rus + Original Eng uzi2009
2 | 0

0 | 756

7

29.01.2014 14:01

Зарубежное кино [DVD / HDDVD / BD / Remux] Планета обезьян: Революция / Dawn of the Planet of the Apes (Мэтт Ривз / Matt Reeves) [2014., Фантастика, боевик, драма, Blu-ray CEE 1080p] Dub (RUS) + Original (ENG) + (CZE, HUN, TUR, POL, UKR ) +... viktor.r-79
0 | 1

0 | 982

7

11.11.2014 05:16

Зарубежное кино [DVD / HDDVD / BD / Remux] Планета обезьян: Революция / Dawn of the Planet of the Apes (Мэтт Ривз / Matt Reeves) [2014., Фантастика, боевик, драма, BDRemux 1080p] Dub (RUS) + Original (ENG) + (UKR ) + Subs (RUS, ENG, UKR) viktor.r-79
0 | 0

0 | 907

4

11.11.2014 09:34

Зарубежное кино [HDDVDRip / BDRip / WEB-DL / HDTV 1080/720р] Планета обезьян: Революция / Dawn of the Planet of the Apes (Мэтт Ривз / Matt Reeves) [2014, Фантастика, боевик, драма, BDRip 720] Dub (RUS) + Original (ENG) + Subs (RUS, ENG) viktor.r-79
1 | 0

2 | 1703

17

11.11.2014 06:11


Яндекс.Метрика powered by Sphinx


В Н И М А Н И Е
Сайт не распространяет и не хранит электронные версии произведений, а лишь бесплатно и без коммерческой выгоды (не требуя взамен платы,
SMS и т.д.) предоставляет доступ к создаваемому пользователями каталогу ссылок на торрент-файлы, которые содержат только списки хеш-сумм.
Убедительная просьба с жалобами обращаться напрямую к пользователю, разместившему торрент файл.

Вверх