Loading...
Error

Судная ночь 2 / The Purge: Anarchy (Джеймс ДеМонако / James DeMonaco) [2014, Триллер, криминал, боевик, BDRip-AVC] Dub (RUS) + Original (ENG) + Subs (RUS, ENG)

Статистика раздачи
Размер:  2,18 GB   |    Зарегистрирован:  2 года   |    Скачан:  19 раз

Полного источника не было: 4 месяца 5 дней

Сидов:  0  |  0 KB/s  ]   Личеров:  0  |  0 KB/s  ]

* - сиды/пиры с внешних источников

   
 
Автор Сообщение

viktor.r-79 Пол:Муж

11-Ноя-2014 12:59

«Добро пожаловать в идеальное будущее, где одну ночь в году все преступления легальны»

Год выпуска: 2014
Страна: США, Франция / Universal Pictures, Blumhouse Productions, Platinum Dunes
Жанр: Триллер, криминал, боевик
Продолжительность: 01:43:34
Перевод: Профессиональный (полное дублирование) [BD CEE]
Субтитры: Русские (полные + форс.), украинские, английские (Full + SDH + SDH-Colored)
Навигация по главам: Есть
Режиссер:
Джеймс ДеМонако / James DeMonaco
В ролях:
Фрэнк Грилло, Кармен Эджого, Зак Гилфорд, Киле Санчес, Майкл К. Уильямс, Зои Борд, Жустина Мачадо, Джон Бизли, Джек Конли, Ноэль Гульеми

Описание:
Добро пожаловать в идеальный мир будущего, мир без преступности и войн. И только один раз в году роскошная спокойная жизнь сменяется анархией. Этой ночью дозволено все: во тьме улиц одни жаждут мести, другие ищут развлечений, остальные пытаются дожить до рассвета…
Качество: BDRip-AVC
Формат: MKV
Видео кодек: х.264
Аудио кодек: AC-3
Видео: 1080x450 (2,40:1), 23,976 fps, 2184 kbps, 0.187 bit/pixel
Аудио#1: 48 kHz, AC3 Dolby Digital, 3/2 (L,C,R,l,r) + LFE ch, 448.00 kbps | RUS
Аудио#2: 48 kHz, AC3 Dolby Digital, 3/2 (L,C,R,l,r) + LFE ch, 384.00 kbps | ENG
Общее
Уникальный идентификатор : 218212878087915839448326270529890637913 (0xA42A4588A1095FDD9D4E3E8BD32F5859)
Полное имя : D:\торрент\Sudnaya.Noch'.2.2014.DUAL.BDRip.x264.-HELLYWOOD.mkv
Формат : Matroska
Версия формата : Version 4 / Version 2
Размер файла : 2,18 Гбайт
Продолжительность : 1 ч. 43 м.
Общий поток : 3015 Кбит/сек
Название фильма : The Purge: Anarchy (2014) - HELLYWOOD
Дата кодирования : UTC 2014-11-11 11:14:27
Программа кодирования : mkvmerge v5.9.0 ('On The Loose') built on Dec 15 2012 16:39:58
Библиотека кодирования : libebml v1.3.0 + libmatroska v1.4.0

Видео
Идентификатор : 1
Формат : AVC
Формат/Информация : Advanced Video Codec
Профиль формата : High@L4.1
Параметр CABAC формата : Да
Параметр ReFrames формата : 10 кадров
Идентификатор кодека : V_MPEG4/ISO/AVC
Продолжительность : 1 ч. 43 м.
Битрейт : 2184 Кбит/сек
Ширина : 1080 пикселей
Высота : 450 пикселей
Соотношение сторон : 2,40:1
Частота кадров : 23,976 кадра/сек
Цветовое пространство : YUV
Субдискретизация насыщенности : 4:2:0
Битовая глубина : 8 бит
Тип развёртки : Прогрессивная
Бит/(Пиксели*Кадры) : 0.187
Размер потока : 1,54 Гбайт (70%)
Заголовок : potroks
Библиотека кодирования : x264 core 130 r2273 b3065e6
Настройки программы : cabac=1 / ref=10 / deblock=1:-3:-3 / analyse=0x3:0x133 / me=umh / subme=11 / psy=1 / psy_rd=0.99:0.02 / mixed_ref=1 / me_range=48 / chroma_me=1 / trellis=2 / 8x8dct=1 / cqm=0 / deadzone=21,11 / fast_pskip=0 / chroma_qp_offset=-3 / threads=9 / lookahead_threads=6 / sliced_threads=0 / nr=0 / decimate=0 / interlaced=0 / bluray_compat=0 / constrained_intra=0 / bframes=11 / b_pyramid=2 / b_adapt=2 / b_bias=0 / direct=3 / weightb=1 / open_gop=0 / weightp=2 / keyint=250 / keyint_min=23 / scenecut=40 / intra_refresh=0 / rc_lookahead=60 / rc=2pass / mbtree=0 / bitrate=2184 / ratetol=1.0 / qcomp=0.70 / qpmin=0 / qpmax=69 / qpstep=4 / cplxblur=20.0 / qblur=0.5 / vbv_maxrate=50000 / vbv_bufsize=62500 / nal_hrd=none / ip_ratio=1.35 / pb_ratio=1.25 / aq=1:0.90
Язык : English
Default : Да
Forced : Нет

Аудио #1
Идентификатор : 2
Формат : AC-3
Формат/Информация : Audio Coding 3
Расширение режима : CM (complete main)
Идентификатор кодека : A_AC3
Продолжительность : 1 ч. 43 м.
Вид битрейта : Постоянный
Битрейт : 448 Кбит/сек
Каналы : 6 каналов
Расположение каналов : Front: L C R, Side: L R, LFE
Частота : 48,0 КГц
Битовая глубина : 16 бит
Метод сжатия : С потерями
Размер потока : 332 Мбайт (15%)
Заголовок : Dub | DD 5.1 @ 448 kbps - BD CEE
Язык : Russian
Default : Да
Forced : Да

Аудио #2
Идентификатор : 3
Формат : AC-3
Формат/Информация : Audio Coding 3
Расширение режима : CM (complete main)
Идентификатор кодека : A_AC3
Продолжительность : 1 ч. 43 м.
Вид битрейта : Постоянный
Битрейт : 384 Кбит/сек
Каналы : 6 каналов
Расположение каналов : Front: L C R, Side: L R, LFE
Частота : 48,0 КГц
Битовая глубина : 16 бит
Метод сжатия : С потерями
Размер потока : 284 Мбайт (13%)
Заголовок : Original | DD 5.1 @ 384 kbps
Язык : English
Default : Нет
Forced : Нет

Текст #1
Идентификатор : 4
Формат : UTF-8
Идентификатор кодека : S_TEXT/UTF8
Идентификатор кодека/Информация : UTF-8 Plain Text
Заголовок : форс.
Язык : Russian
Default : Да
Forced : Да

Текст #2
Идентификатор : 5
Формат : UTF-8
Идентификатор кодека : S_TEXT/UTF8
Идентификатор кодека/Информация : UTF-8 Plain Text
Заголовок : полные
Язык : Russian
Default : Нет
Forced : Нет

Текст #3
Идентификатор : 6
Формат : UTF-8
Идентификатор кодека : S_TEXT/UTF8
Идентификатор кодека/Информация : UTF-8 Plain Text
Заголовок : полные
Язык : Ukrainian
Default : Нет
Forced : Нет

Текст #4
Идентификатор : 7
Формат : UTF-8
Идентификатор кодека : S_TEXT/UTF8
Идентификатор кодека/Информация : UTF-8 Plain Text
Заголовок : Full
Язык : English
Default : Нет
Forced : Нет

Текст #5
Идентификатор : 8
Формат : UTF-8
Идентификатор кодека : S_TEXT/UTF8
Идентификатор кодека/Информация : UTF-8 Plain Text
Заголовок : SDH
Язык : English
Default : Нет
Forced : Нет

Текст #6
Идентификатор : 9
Формат : UTF-8
Идентификатор кодека : S_TEXT/UTF8
Идентификатор кодека/Информация : UTF-8 Plain Text
Заголовок : SDH-Colored
Язык : English
Default : Нет
Forced : Нет

Меню
00:00:00.000 : en:(01)00:00:00:000
00:05:14.521 : en:(02)00:05:14:521
00:09:49.838 : en:(03)00:09:49:838
00:14:37.293 : en:(04)00:14:37:293
00:18:32.944 : en:(05)00:18:32:944
00:23:17.229 : en:(06)00:23:17:229
00:31:21.796 : en:(07)00:31:21:796
00:36:28.936 : en:(08)00:36:28:936
00:41:18.559 : en:(09)00:41:18:559
00:47:13.831 : en:(10)00:47:13:831
00:51:38.762 : en:(11)00:51:38:762
00:57:27.943 : en:(12)00:57:27:943
01:01:48.663 : en:(13)01:01:48:663
01:06:49.213 : en:(14)01:06:49:213
01:10:11.916 : en:(15)01:10:11:916
01:15:45.747 : en:(16)01:15:45:747
01:21:14.493 : en:(17)01:21:14:493
01:26:41.154 : en:(18)01:26:41:154
01:31:17.970 : en:(19)01:31:17:970
01:36:47.051 : en:(20)01:36:47:051
01:43:34.498 : en:(21)01:43:34:498
pic pic pic pic
Для увеличения картинки щелкните мышкой по превью

Автор рипа: potroks

Этот торрент недоступен для скачивания без регистрации, однако доступен по публичной magnet-ссылке (источники с публичных трекеров). Перед использованием ссылки прочтите, пожалуйста Пользовательское соглашение, а также как можно дольше оставайтесь на раздаче! Для того, чтобы скачать сам торрент-файл (который видит больше источников), а также для того, чтобы поблагодарить релизера, вам необходимо зарегистрироваться. Если регистрироваться лень - вы можете также попробовать скачать релиз по нашим партнерским ссылкам ниже.

[underverse.su].t46128.torrent
Трекер: Зарегистрирован   [ 11.11.2014 12:59 ]  

Статус: проверено (by Ведьмочка at 11.11.2014 14:30)
Поблагодарили: пока никто не поблагодарил...
Тип торрента: публичный - доступные источники с открытых трекеров: 
Размер: 2,18 GB (занимает 1/2 DVDR, для записи нужно 1 болванка DVDR/RW)
 
 
Похожие темы
Форум Тема Автор Торрент Отв. Посл. сооб.
Зарубежное кино [DVDRip, Low-Res HDRip, и т.д.] Судная ночь / The Purge (Джеймс ДеМонако) [2013 г., триллер, ужасы, HDRip] Dub Су-34
4 | 0

3 | 1321

19

27.09.2013 16:15

Зарубежное кино [DVDRip, Low-Res HDRip, и т.д.] Судная ночь / The Purge (Джеймс ДеМонако) [2013 г., триллер, ужасы, BDRip-AVC] Dub (iTunes Russia) + Original + Sub (Eng) 90ytr90
1 | 1

0 | 477

8

28.09.2013 16:17

Зарубежное кино [DVDRip, Low-Res HDRip, и т.д.] Судная ночь / The Purge (Джеймс ДеМонако) [2013 г., триллер, ужасы, HDRip] Dub 90ytr90
12 | 0

0 | 1737

26

09.10.2013 15:26

Зарубежное кино [DVDRip, Low-Res HDRip, и т.д.] Судная ночь / The Purge (Джеймс ДеМонако) [2013 г., триллер, ужасы, BDRip-AVC] Dub + Original + Subs 90ytr90
6 | 0

0 | 476

17

09.10.2013 15:41

Зарубежное кино [DVDRip, Low-Res HDRip, и т.д.] Судная ночь 3 / The Purge: Election Year (Джеймс ДеМонако / James DeMonaco) [2016 г., ужасы, фантастика, боевик, триллер, BDRip] Dub + Original (Eng) 90ytr90
89 | 8

0 | 162

1

05.11.2016 06:07

T Зарубежное кино [DVDRip, Low-Res HDRip, и т.д.] Судная ночь 2 / The Purge: Anarchy (Джеймс ДеМонако) [2014 г., триллер, криминал, боевик, WEB-DLRip 720p] MVO (BaibaKo) + Original Паукан
0 | 0

0 | 781

11

11.08.2014 15:01

T Зарубежное кино [DVDRip, Low-Res HDRip, и т.д.] Судная ночь 2 / The Purge: Anarchy (Джеймс ДеМонако) [2014 г., триллер, криминал, боевик, WEB-DLRip] MVO [BaibaKo] Паукан
0 | 0

0 | 870

19

12.08.2014 14:01

Зарубежное кино [DVDRip, Low-Res HDRip, и т.д.] Судная ночь 3 / The Purge: Election Year (Джеймс ДеМонако / James DeMonaco) [2016 г., ужасы, фантастика, боевик, триллер, BDRip-AVC] Dub + Sub (Rus) 90ytr90
100 | 9

0 | 364

3

26.10.2016 16:39

Зарубежное кино [DVDRip, Low-Res HDRip, и т.д.] Судная ночь 3 / The Purge: Election Year (Джеймс ДеМонако / James DeMonaco) [2016 г., ужасы, фантастика, боевик, триллер, BDRip-AVC] Dub + Original (Eng) + Sub (Rus, Eng) 90ytr90
120 | 7

0 | 406

2

26.10.2016 16:35

Зарубежное кино [DVDRip, Low-Res HDRip, и т.д.] Судная ночь 3 / The Purge: Election Year (Джеймс ДеМонако / James DeMonaco) [2016 г., ужасы, фантастика, боевик, триллер, BDRip] Dub 90ytr90
235 | 34

0 | 350

1

26.10.2016 16:13


Яндекс.Метрика powered by Sphinx


В Н И М А Н И Е
Сайт не распространяет и не хранит электронные версии произведений, а лишь бесплатно и без коммерческой выгоды (не требуя взамен платы,
SMS и т.д.) предоставляет доступ к создаваемому пользователями каталогу ссылок на торрент-файлы, которые содержат только списки хеш-сумм.
Убедительная просьба с жалобами обращаться напрямую к пользователю, разместившему торрент файл.

Вверх