Loading...
Error

Навстречу шторму / Into the Storm (Стивен Куэйл / Steven Quale) [2014, Фантастика, боевик, приключения, BDRip-AVC] Dub (RUS, R5) + Original (ENG) + Subs (RUS, ENG)

Статистика раздачи
Размер:  2,18 GB   |    Зарегистрирован:  2 года   |    Скачан:  21 раз
Сидов:  1  |  11 KB/s  ]   Личеров:  0  |  0 KB/s  ]

* - сиды/пиры с внешних источников

   
 
Автор Сообщение

viktor.r-79 Пол:Муж

11-Ноя-2014 08:54

Навстречу шторму / Into the Storm
«У каждого будет свой... торнадо»

Год выпуска: 2014
Страна: США / New Line Cinema, Village Roadshow, Broken Road Productions
Жанр: Фантастика, боевик, приключения
Продолжительность: 01:29:17
Перевод: Профессиональный (полное дублирование) [R5]
Cубтитры: Русские (Full + Forced), английские (Full + SDH + SDH-Colored)
Навигация по главам: Есть
Режиссер:
Стивен Куэйл / Steven Quale
В ролях:
Ричард Армитедж, Сара Уэйн Кэллис, Мэтт Уолш, Макс Дикон, Натан Кресс, Алисия Дебнем Кери, Арлен Эскарпета, Джереми Самптер, Ли Уитэйкер, Кайл Дэвис

Описание:
Всего лишь за один день невероятное «нашествие» смерчей практически уничтожило городок Сильверстон. Все его жители были отданы на растерзание непредсказуемым и смертельно опасным торнадо, и при этом метеорологи говорят, что худшее еще впереди. Большинство ищут убежища, в то время как немногие смельчаки идут навстречу стихии, испытывая себя: насколько далеко сможет зайти «охотник за торнадо» ради одного единственного — зато какого! — снимка.
Качество: BDRip-AVC
Формат: MKV
Видео кодек: х.264
Аудио кодек: AC-3
Видео: 1024x576 (16:9), 23,976 fps, 2599 kbps, 0.184 bit/pixel
Аудио#1: 48 kHz, AC3 Dolby Digital, 3/2 (L,C,R,l,r) ch, 448.00 kbps |RUS|
Аудио#2: 48 kHz, AC3 Dolby Digital, 3/2 (L,C,R,l,r) ch, 448.00 kbps |ENG|
Уникальный идентификатор : 254729441060133407797887029478123091971 (0xBFA31B1760D382F68EEBDF1EAC87B803)
Полное имя : D:\торрент\Navstrechu.Shtormu.2014.DUAL.BDRip.x264.-HELLYWOOD.mkv
Формат : Matroska
Версия формата : Version 4 / Version 2
Размер файла : 2,18 Гбайт
Продолжительность : 1 ч. 29 м.
Общий поток : 3497 Кбит/сек
Название фильма : Into the Storm (2014) - HELLYWOOD
Дата кодирования : UTC 2014-11-11 06:21:46
Программа кодирования : mkvmerge v5.9.0 ('On The Loose') built on Dec 15 2012 16:39:58
Библиотека кодирования : libebml v1.3.0 + libmatroska v1.4.0

Видео
Идентификатор : 1
Формат : AVC
Формат/Информация : Advanced Video Codec
Профиль формата : Main@L4.1
Параметр CABAC формата : Да
Параметр ReFrames формата : 12 кадров
Идентификатор кодека : V_MPEG4/ISO/AVC
Продолжительность : 1 ч. 29 м.
Битрейт : 2599 Кбит/сек
Ширина : 1024 пикселя
Высота : 576 пикселей
Соотношение сторон : 16:9
Частота кадров : 23,976 кадра/сек
Цветовое пространство : YUV
Субдискретизация насыщенности : 4:2:0
Битовая глубина : 8 бит
Тип развёртки : Прогрессивная
Бит/(Пиксели*Кадры) : 0.184
Размер потока : 1,58 Гбайт (72%)
Заголовок : potroks
Библиотека кодирования : x264 core 130 r2273 b3065e6
Настройки программы : cabac=1 / ref=12 / deblock=1:-3:-3 / analyse=0x1:0x131 / me=umh / subme=11 / psy=1 / psy_rd=0.98:0.00 / mixed_ref=1 / me_range=48 / chroma_me=1 / trellis=2 / 8x8dct=0 / cqm=0 / deadzone=21,11 / fast_pskip=0 / chroma_qp_offset=-2 / threads=9 / lookahead_threads=6 / sliced_threads=0 / nr=0 / decimate=0 / interlaced=0 / bluray_compat=0 / constrained_intra=0 / bframes=13 / b_pyramid=2 / b_adapt=2 / b_bias=0 / direct=3 / weightb=1 / open_gop=0 / weightp=2 / keyint=250 / keyint_min=23 / scenecut=40 / intra_refresh=0 / rc_lookahead=60 / rc=2pass / mbtree=0 / bitrate=2599 / ratetol=1.0 / qcomp=0.73 / qpmin=0 / qpmax=69 / qpstep=4 / cplxblur=20.0 / qblur=0.5 / vbv_maxrate=52000 / vbv_bufsize=62500 / nal_hrd=none / ip_ratio=1.35 / pb_ratio=1.25 / aq=1:0.80
Язык : English
Default : Да
Forced : Нет

Аудио #1
Идентификатор : 2
Формат : AC-3
Формат/Информация : Audio Coding 3
Расширение режима : CM (complete main)
Идентификатор кодека : A_AC3
Продолжительность : 1 ч. 29 м.
Вид битрейта : Постоянный
Битрейт : 448 Кбит/сек
Каналы : 6 каналов
Расположение каналов : Front: L C R, Side: L R, LFE
Частота : 48,0 КГц
Битовая глубина : 16 бит
Метод сжатия : С потерями
Размер потока : 286 Мбайт (13%)
Заголовок : Dub | DD 5.1 @ 448 kbps - R5
Язык : Russian
Default : Да
Forced : Нет

Аудио #2
Идентификатор : 3
Формат : AC-3
Формат/Информация : Audio Coding 3
Расширение режима : CM (complete main)
Идентификатор кодека : A_AC3
Продолжительность : 1 ч. 29 м.
Вид битрейта : Постоянный
Битрейт : 448 Кбит/сек
Каналы : 6 каналов
Расположение каналов : Front: L C R, Side: L R, LFE
Частота : 48,0 КГц
Битовая глубина : 16 бит
Метод сжатия : С потерями
Размер потока : 286 Мбайт (13%)
Заголовок : Original | DD 5.1 @ 448 kbps
Язык : English
Default : Нет
Forced : Нет

Текст #1
Идентификатор : 4
Формат : UTF-8
Идентификатор кодека : S_TEXT/UTF8
Идентификатор кодека/Информация : UTF-8 Plain Text
Заголовок : форс.
Язык : Russian
Default : Да
Forced : Да

Текст #2
Идентификатор : 5
Формат : UTF-8
Идентификатор кодека : S_TEXT/UTF8
Идентификатор кодека/Информация : UTF-8 Plain Text
Заголовок : полные
Язык : Russian
Default : Нет
Forced : Нет

Текст #3
Идентификатор : 6
Формат : UTF-8
Идентификатор кодека : S_TEXT/UTF8
Идентификатор кодека/Информация : UTF-8 Plain Text
Заголовок : Full
Язык : English
Default : Нет
Forced : Нет

Текст #4
Идентификатор : 7
Формат : UTF-8
Идентификатор кодека : S_TEXT/UTF8
Идентификатор кодека/Информация : UTF-8 Plain Text
Заголовок : SDH
Язык : English
Default : Нет
Forced : Нет

Текст #5
Идентификатор : 8
Формат : UTF-8
Идентификатор кодека : S_TEXT/UTF8
Идентификатор кодека/Информация : UTF-8 Plain Text
Заголовок : SDH-Colored
Язык : English
Default : Нет
Forced : Нет

Меню
00:00:00.000 : en:(01)00:00:00:000
00:09:37.201 : en:(02)00:09:37:201
00:19:58.029 : en:(03)00:19:58:029
00:29:52.248 : en:(04)00:29:52:248
00:38:48.409 : en:(05)00:38:48:409
00:47:59.083 : en:(06)00:47:59:083
01:00:39.010 : en:(07)01:00:39:010
01:08:59.510 : en:(08)01:08:59:510
01:19:59.752 : en:(09)01:19:59:752
01:23:58.698 : en:(10)01:23:58:698
01:29:17.143 : en:(11)01:29:17:143
pic pic pic pic pic
Для увеличения картинки щелкните мышкой по превью

Автор рипа: potroks

Этот торрент недоступен для скачивания без регистрации, однако доступен по публичной magnet-ссылке (источники с публичных трекеров). Перед использованием ссылки прочтите, пожалуйста Пользовательское соглашение, а также как можно дольше оставайтесь на раздаче! Для того, чтобы скачать сам торрент-файл (который видит больше источников), а также для того, чтобы поблагодарить релизера, вам необходимо зарегистрироваться. Если регистрироваться лень - вы можете также попробовать скачать релиз по нашим партнерским ссылкам ниже.

[underverse.su].t46114.torrent
Трекер: Зарегистрирован   [ 11.11.2014 08:54 ]  

Статус: проверено (by Ведьмочка at 11.11.2014 15:10)
Поблагодарили: 2 человека
Тип торрента: публичный - доступные источники с открытых трекеров: 
Размер: 2,18 GB (занимает 1/2 DVDR, для записи нужно 1 болванка DVDR/RW)
 
 
Похожие темы
Форум Тема Автор Торрент Отв. Посл. сооб.
Зарубежное кино [DVDRip, Low-Res HDRip, и т.д.] Навстречу шторму / Into the Storm (Стивен Куэйл / Steven Quale) [2014 г., фантастика, боевик, приключения, HDRip] Dub 90ytr90
119 | 3

0 | 413

6

26.11.2014 14:31

Зарубежное кино [DVDRip, Low-Res HDRip, и т.д.] Навстречу шторму / Into the Storm (Стивен Куэйл / Steven Quale) [2014 г., фантастика, боевик, приключения, BDRip-AVC] Dub + Sub (Rus, Eng) 90ytr90
0 | 0

0 | 407

6

26.11.2014 14:44

Зарубежное кино [DVDRip, Low-Res HDRip, и т.д.] Навстречу шторму / Into the Storm (Стивен Куэйл / Steven Quale) [2014 г., фантастика, боевик, приключения, HDRip] Dub 90ytr90
6 | 0

0 | 306

7

26.11.2014 14:59

Зарубежное кино [HDDVDRip / BDRip / WEB-DL / HDTV 1080/720р] Навстречу шторму / Into the Storm (Стивен Куэйл / Steven Quale) [2014 г., фантастика, боевик, приключения, BDRip 1080p] Dub (Rus) + Dub (Ukr) + Original (Eng) + Subs 90ytr90
91 | 9

0 | 306

5

26.11.2014 14:54

Зарубежное кино [HDDVDRip / BDRip / WEB-DL / HDTV 1080/720р] Навстречу шторму / Into the Storm (Стивен Куэйл / Steven Quale) [2014 г., фантастика, боевик, приключения, BDRip 720p] Dub + Sub (Rus, Eng) 90ytr90
109 | 3

0 | 369

8

26.11.2014 15:05

Зарубежное кино [HDDVDRip / BDRip / WEB-DL / HDTV 1080/720р] Навстречу шторму / Into the Storm (Стивен Куэйл / Steven Quale) [2014 г., фантастика, боевик, приключения, BDRip 720p] Dub (Rus) + Dub (Ukr) + Original (Eng) + Sub (Rus, Eng) 90ytr90
15 | 0

0 | 329

1

26.11.2014 15:12


Яндекс.Метрика powered by Sphinx


В Н И М А Н И Е
Сайт не распространяет и не хранит электронные версии произведений, а лишь бесплатно и без коммерческой выгоды (не требуя взамен платы,
SMS и т.д.) предоставляет доступ к создаваемому пользователями каталогу ссылок на торрент-файлы, которые содержат только списки хеш-сумм.
Убедительная просьба с жалобами обращаться напрямую к пользователю, разместившему торрент файл.

Вверх