Loading...
Error

Легавый (2 сезон: 1-32 серии из 32) (Олег Фомин) [2014 г., детектив, SatRip]

Статистика раздачи
Размер:  19,88 GB   |    Зарегистрирован:  2 года 11 месяцев   |    Скачан:  8 раз

Полного источника не было: 1 месяц 26 дней

Сидов:  0  |  0 KB/s  ]   Личеров:  0  |  0 KB/s  ]

* - сиды/пиры с внешних источников

   
 
Автор Сообщение

nemos Пол:Муж

10-Ноя-2014 16:05




Год выпуска: 2014
Жанр: детектив
Страна: Россия
Режиссер: Олег Фомин
В ролях: Николай Козак, Эдуард Флёров, Михаил Горевой, Михаил Павлик, Андрей Гусев, Елена Полякова, Елена Мольченко, Екатерина Олькина, Дмитрий Горевой, Павел Ясенок, Максим Щёголев, Олег Данилевский, Олег Флеер, Евгений Смирнов-Иваницкий, Игорь Воробьёв, Евгений Березовский, Олег Фомин, Артурс Пуполс-Кочаневский, Владислав Резник, Владимир Бадов, Сергей Макаров, Артур Бичахчян, Александр Шишкин (IV), Александр Негреба, Андрей Копытов, Андрей Костюк, Александр Мынто, Аристарх Венес, Михаил Васьков, Сергей Шарифуллин, Дмитрий Дёмин, Сергей Беляев, Юрий Осипов, Полина Борунова, Михаил Асанкин, Мария Бородина
Качество видео: SatRip

Продолжительность: 00:43:46 (Серия)
Формат: AVI
Видео: DivX, 720x448, 1 501 kbps
Аудио: русский, MP3 2.0, 128 kbps

Сюжет фильма:
События второго сезона разворачиваются в период с лета 1953-го до весны 1954-го. Советский народ победил в Великой Отечественной, но дома осталась другая война…
Холодным летом 53-го война с бандитизмом будет продолжаться от Москвы до самых до окраин. С бандитами будет покончено, и враг будет разбит!
Главный герой — Легавый, он же Юрий Козырев — по-прежнему работает в одном из отделений милиции города Петрово Московской области. Его жизнь была налажена и размерена до тех пор, пока в стране не началась широкомасштабная амнистия. Из лагерей вышли тысячи матерых уголовников, большинство из которых направились в столицу, пытаясь по пути «прибарахлиться» — поживиться краденым. Это значит только одно — на долю Козырева опять придется много работы.Но кроме разборок с рядовыми бандитами Юрию предстоит встретиться со старым врагом по фамилии Павливкер, которого он отправил в лагерь пять лет назад. Павливкера тоже амнистировали, восстановили в силовых структурах и назначили на ответственную должность. Теперь он пытается избавиться от Козырева с помощью служебных полномочий.
Эта беспощадная война с бандитами унесет не одну жизнь, беда придет и в дом Козырева. После гибели жены Полины ему придется одному воспитывать приемного сына...

Код:

E:\Фильмы Раздача-1\Легавый 2\Legavyi.2-01.2014.SATRip.avi
   General
      Complete name : E:\Фильмы Раздача-1\Легавый 2\Legavyi.2-01.2014.SATRip.avi
      Format : AVI
      Format/Info : Audio Video Interleave
      File size : 533 MiB
      Duration : 45mn 29s
      Overall bit rate : 1 639 Kbps
      Writing library : VirtualDub build 35491/release
   Video #0
      ID : 0
      Format : MPEG-4 Visual
      Format settings, BVOP : 1
      Format settings, QPel : No
      Format settings, GMC : No warppoints
      Format settings, Matrix : Default (H.263)
      Muxing mode : Packed bitstream
      Codec ID : DX50
      Codec ID/Hint : DivX 5
      Duration : 45mn 29s
      Bit rate : 1 501 Kbps
      Width : 720 pixels
      Height : 448 pixels
      Display aspect ratio : 1.607
      Frame rate : 25.000 fps
      Color space : YUV
      Chroma subsampling : 4:2:0
      Bit depth : 8 bits
      Scan type : Progressive
      Compression mode : Lossy
      Bits/(Pixel*Frame) : 0.186
      Stream size : 488 MiB (92%)
      Writing library : DivX 6.8.5 (UTC 2009-08-20)
   Audio #1
      ID : 1
      Format : MPEG Audio
      Format version : Version 1
      Format profile : Layer 3
      Mode : Joint stereo
      Codec ID : 55
      Codec ID/Hint : MP3
      Duration : 45mn 29s
      Bit rate mode : Constant
      Bit rate : 128 Kbps
      Channel(s) : 2 channels
      Sampling rate : 48.0 KHz
      Compression mode : Lossy
      Stream size : 41.7 MiB (8%)
      Alignment : Split accross interleaves
      Interleave, duration : 40 ms (1.00 video frame)
      Interleave, preload duration : 500 ms
picpicpicpicpicpicpicpicpicpicpicpic
Для увеличения картинки щелкните мышкой по превью

Этот торрент недоступен для скачивания без регистрации, однако доступен по публичной magnet-ссылке (источники с публичных трекеров). Перед использованием ссылки прочтите, пожалуйста Пользовательское соглашение, а также как можно дольше оставайтесь на раздаче! Для того, чтобы скачать сам торрент-файл (который видит больше источников), а также для того, чтобы поблагодарить релизера, вам необходимо зарегистрироваться. Если регистрироваться лень - вы можете также попробовать скачать релиз по нашим партнерским ссылкам ниже.

[underverse.su].t46557.torrent
Трекер: Зарегистрирован   [ 23.11.2014 20:23 ]  

Статус: проверено (by nemos at 23.11.2014 20:23)
Поблагодарили: 1 человек
Тип торрента: публичный - доступные источники с открытых трекеров: 
Размер: 19,88 GB (занимает 4,54 DVDR, для записи нужно 5 болванок DVDR/RW)
 
 


Последний раз редактировалось: nemos (24.11.2014 11:52), всего редактировалось 18 раз(а)

nemos Пол:Муж

10-Ноя-2014 16:16

Ссылки на первый сезон: http://underverse.su/viewtopic.php?t=24092 и http://underverse.su/viewtopic.php?t=24074

nemos Пол:Муж

11-Ноя-2014 19:16

Внимание! Раздача обновлена! 32 серии.

Яндекс.Метрика powered by Sphinx


В Н И М А Н И Е
Сайт не распространяет и не хранит электронные версии произведений, а лишь бесплатно и без коммерческой выгоды (не требуя взамен платы,
SMS и т.д.) предоставляет доступ к создаваемому пользователями каталогу ссылок на торрент-файлы, которые содержат только списки хеш-сумм.
Убедительная просьба с жалобами обращаться напрямую к пользователю, разместившему торрент файл.

Вверх