Loading...
Error

Стражи Галактики / Guardians of the Galaxy (Джеймс Ганн) [2014 г., Фантастика,Боевик,Приключения , DVDRip] DUB (RUS) |Чистый звук|

Статистика раздачи
Размер:  1,37 GB   |    Зарегистрирован:  2 года   |    Скачан:  147 раз
Сидов:  2  |  0 KB/s  ]   Личеров:  0  |  0 KB/s  ]

* - сиды/пиры с внешних источников

   
 
Автор Сообщение

viktor.r-79 Пол:Муж

10-Ноя-2014 11:12

Стражи Галактики / Guardians of the Galaxy
«Мстители спасают лишь Землю бренную, а эти ребята спасают Вселенную»

Год выпуска: 2014
Страна: США
Жанр: Фантастика, Боевик, Приключения
Продолжительность: 02:00:50
Перевод: Профессиональный (полное дублирование) |Чистый звук|
Режиссер:
Джеймс Ганн
В ролях:
Крис Прэтт, Зои Салдана, Дэйв Батиста, Вин Дизель, Брэдли Купер, Ли Пейс, Майкл Рукер, Карен Гиллан, Джимон Хонсу, Джон Си Райли

Описание:
Питер Квилл становится жертвой охотников за головами после кражи таинственной сферы, за которой охотился Ронан- могущественный злодей, полный амбиций и угрожающий целой вселенной. Чтобы одолеть Ронана, Питеру приходится объединиться с квартетом отбросов: вооружённым до зубов Ракетным енотом, древоподобным гуманоидом Грутом, смертельно опасной и загадочной Гаморой и мстительным Драксом Разрушителем. Но когда Питер обнаруживает истинную силу сферы и узнаёт насколько она опасна для космоса, он должен сделать всё возможное, чтобы сплотить всех членов команды для последнего противостояния и вернуть баланс во всей Галактике.
Качество: DVDRip
Формат: AVI
Видео кодек: XviD
Аудио кодек: AC3
Видео: AVI (XviD) ~1354 Kbps, 23.976 fps, 720x304
Аудио:AC3, 192 kb/s (2 ch)
Общее
Полное имя : D:\торрент\Strag1.Galakt1ki.2014.D.DVDRip.1400Mb.avi
Формат : AVI
Формат/Информация : Audio Video Interleave
Размер файла : 1,37 Гбайт
Продолжительность : 2 ч. 0 м.
Общий поток : 1619 Кбит/сек
Программа кодирования : VirtualDubMod 1.5.10.2 (build 2540/release)
Библиотека кодирования : VirtualDubMod build 2540/release

Видео
Идентификатор : 0
Формат : MPEG-4 Visual
Профиль формата : Advanced Simple@L5
Параметр BVOP формата : 2
Параметр QPel формата : Нет
Параметр GMC формата : Без точки перехода
Параметр матрицы формата : Default (MPEG)
Идентификатор кодека : XVID
Идентификатор кодека/Подсказка : XviD
Продолжительность : 2 ч. 0 м.
Битрейт : 1354 Кбит/сек
Ширина : 720 пикселей
Высота : 304 пикселя
Соотношение сторон : 2,35:1
Частота кадров : 23,976 кадра/сек
Цветовое пространство : YUV
Субдискретизация насыщенности : 4:2:0
Битовая глубина : 8 бит
Тип развёртки : Прогрессивная
Метод сжатия : С потерями
Бит/(Пиксели*Кадры) : 0.258
Размер потока : 1,14 Гбайт (84%)
Библиотека кодирования : XviD 1.2.1 (UTC 2008-12-04)

Аудио
Идентификатор : 1
Формат : AC-3
Формат/Информация : Audio Coding 3
Расширение режима : CM (complete main)
Идентификатор кодека : 2000
Продолжительность : 2 ч. 0 м.
Вид битрейта : Постоянный
Битрейт : 192 Кбит/сек
Каналы : 2 канала
Расположение каналов : Front: L R
Частота : 48,0 КГц
Битовая глубина : 16 бит
Метод сжатия : С потерями
Размер потока : 166 Мбайт (12%)
Выравнивание : Разделение по промежуткам
pic pic pic
Для увеличения картинки щелкните мышкой по превью


Этот торрент недоступен для скачивания без регистрации, однако доступен по публичной magnet-ссылке (источники с публичных трекеров). Перед использованием ссылки прочтите, пожалуйста Пользовательское соглашение, а также как можно дольше оставайтесь на раздаче! Для того, чтобы скачать сам торрент-файл (который видит больше источников), а также для того, чтобы поблагодарить релизера, вам необходимо зарегистрироваться. Если регистрироваться лень - вы можете также попробовать скачать релиз по нашим партнерским ссылкам ниже.

[underverse.su].t46074.torrent
Трекер: Зарегистрирован   [ 10.11.2014 11:12 ]  

Статус: T временная (by nemos at 10.11.2014 13:14)
Поблагодарили: 5 человек
Тип торрента: публичный - доступные источники с открытых трекеров: 
Размер: 1,37 GB (занимает 0,31 DVDR, для записи нужно 1 болванка DVDR/RW)
 
 
Похожие темы
Форум Тема Автор Торрент Отв. Посл. сооб.
T Зарубежное кино [DVDRip, Low-Res HDRip, и т.д.] Стражи Галактики / Guardians of the Galaxy (Джеймс Ганн) [2014 г., Фантастика, Боевик, Приключения, HDRip] Dub (RUS) Чистый звук Ведьмочка
0 | 0

1 | 767

34

23.11.2014 17:25

T Зарубежное кино [DVDRip, Low-Res HDRip, и т.д.] Стражи Галактики / Guardians of the Galaxy (Джеймс Ганн / James Gunn) [2014 г., фантастика, боевик, приключения, HDRip) Dub [iTunes] 90ytr90
22 | 0

0 | 1559

54

18.11.2014 18:20

Зарубежное кино [DVDRip, Low-Res HDRip, и т.д.] Стражи Галактики / Guardians of the Galaxy (Джеймс Ганн / James Gunn) [2014 г., фантастика, боевик, приключения, BDRip-AVC] Dub + Original (Eng) + Sub (Rus, Eng) 90ytr90
1 | 0

0 | 447

12

20.11.2014 08:51

Зарубежное кино [DVDRip, Low-Res HDRip, и т.д.] Стражи Галактики / Guardians of the Galaxy (Джеймс Ганн / James Gunn) [2014 г., фантастика, боевик, приключения, BDRip] Dub 90ytr90
8 | 0

0 | 767

35

20.11.2014 09:31

# Зарубежное кино [DVDRip, Low-Res HDRip, и т.д.] Стражи Галактики / Guardians of the Galaxy (Джеймс Ганн / James Gunn) [2014 г., фантастика, боевик, приключения, BDRip-AVC] [IMAX] Dub + Original (Eng) + Subs 90ytr90
3 | 0

0 | 594

17

22.11.2014 14:28

Зарубежное кино [DVDRip, Low-Res HDRip, и т.д.] Стражи Галактики / Guardians of the Galaxy (Джеймс Ганн / James Gunn) [2014 г., фантастика, боевик, приключения, HDRip] [IMAX] Dub 90ytr90
3 | 0

0 | 498

20

22.11.2014 17:27

Зарубежное кино HQ Стражи Галактики / Guardians of the Galaxy (Джеймс Ганн / James Gunn) [2014 г., фантастика, боевик, приключения, BDRip] Rus (Dub) HQ Underverse HQ Underverse
116 | 1

0 | 1557

104

07.12.2014 09:06

Зарубежное кино [HDDVDRip / BDRip / WEB-DL / HDTV 1080/720р] Стражи Галактики / Guardians of the Galaxy (Джеймс Ганн / James Gunn) [2014 г., фантастика, боевик, приключения, BDRip 720p] Dub + Original (Eng) + Comments + Sub (Rus, Eng) 90ytr90
1 | 1

0 | 626

15

20.11.2014 09:15

Зарубежное кино [HDDVDRip / BDRip / WEB-DL / HDTV 1080/720р] Стражи Галактики / Guardians of the Galaxy (Джеймс Ганн / James Gunn) [2014 г., фантастика, боевик, приключения, BDRip 1080p] Dub + Original (Eng) + Comments + Sub (Rus, Eng) 90ytr90
2 | 0

0 | 568

40

20.11.2014 09:21

Зарубежное кино [HDDVDRip / BDRip / WEB-DL / HDTV 1080/720р] Стражи Галактики / Guardians of the Galaxy (Джеймс Ганн / James Gunn) [2014 г., фантастика, боевик, приключения, BDRip 1080p] Dub + Sub (Rus, Eng) 90ytr90
7 | 0

0 | 657

47

20.11.2014 11:00


Яндекс.Метрика powered by Sphinx


В Н И М А Н И Е
Сайт не распространяет и не хранит электронные версии произведений, а лишь бесплатно и без коммерческой выгоды (не требуя взамен платы,
SMS и т.д.) предоставляет доступ к создаваемому пользователями каталогу ссылок на торрент-файлы, которые содержат только списки хеш-сумм.
Убедительная просьба с жалобами обращаться напрямую к пользователю, разместившему торрент файл.

Вверх