Loading...
Error

Тереза Ракен / In Secret (Чарльз Стрэттон / Charlie Stratton) [2013 г., триллер, драма, криминал, HDRip] VO + Original

Статистика раздачи
Размер:  2,03 GB   |    Зарегистрирован:  2 года   |    Скачан:  10 раз

Полного источника не было: 6 месяцев

Сидов:  0  |  0 KB/s  ]   Личеров:  0  |  0 KB/s  ]

* - сиды/пиры с внешних источников

   
 
Автор Сообщение

Паукан Пол:Муж

09-Ноя-2014 08:41

Тереза Ракен / In Secret


Название: Тереза Ракен
Оригинальное название:In Secret
Год выпуска: 2013
Страна: США
Жанр: триллер, драма, криминал
Продолжительность: 01:46:44
Перевод: Любительский (одноголосый)[Синта Рурони]
Режиссер-постановщик: Чарльз Стрэттон / Charlie Stratton
В главных ролях: Элизабет Олсен (Therese Raquin), Оскар Айзек (Laurent), Том Фелтон (Camille), Джессика Лэнг (Madame Raquin), Ширли Хендерсон (Suzanne), Мэтт Лукас (Olivier), Макензи Крук (Grivet), Джон Кэвэна (Inspector Michaud), Лили Лэйт (Young Therese), Мэтт Девере (Therese's Father), Димитрийе Богданов (Young Camille), Aleksandr Ivanovic (Coachman #1)

Описание:
Молодая женщина Тереза, которая, рано оставшись без родителей, выросла под бдительным оком своей властной тетки, вышла замуж за своего двоюродного брата Камила. Болезненный и эгоистичный Камил никогда особенно не привлекал Терезу, и при первой же возможности она заводит бурный роман с одним из его друзей, Лорентом.
Рейтинг:
MPAA: R - Лицам до 17 лет обязательно присутствие взрослого
Качество: HDRip
Формат: AVI
Видео кодек: XviD
Звук кодек:AC3
Видео: XviD, 720x304 (2.35:1), 1710 kbps, 23,976 fps, 0,326 bpp
Звук №1: AC3 / 5.1 / 48 kHz / 448 kbps / Русский
Звук №2: AC3 / 5.1 / 48 kHz / 448 kbps / Английский
General
Complete name : D:ТорентыV.tayne.2013.L1.HDRip.2100MB.avi
Format : AVI
Format/Info : Audio Video Interleave
File size : 2.03 GiB
Duration : 1h 46mn
Overall bit rate : 2 725 Kbps
Writing application : VirtualDubMod 1.5.10.2 (build 2540/release)
Writing library : VirtualDubMod build 2540/release

Video
ID : 0
Format : MPEG-4 Visual
Format profile : Advanced Simple@L5
Format settings, BVOP : 2
Format settings, QPel : No
Format settings, GMC : No warppoints
Format settings, Matrix : Custom
Codec ID : XVID
Codec ID/Hint : XviD
Duration : 1h 46mn
Bit rate : 1 710 Kbps
Width : 720 pixels
Height : 304 pixels
Display aspect ratio : 2.35:1
Frame rate : 23.976 fps
Color space : YUV
Chroma subsampling : 4:2:0
Bit depth : 8 bits
Scan type : Progressive
Compression mode : Lossy
Bits/(Pixel*Frame) : 0.326
Stream size : 1.28 GiB (63%)
Writing library : XviD 1.2.1 (UTC 2008-12-04)

Audio #1
ID : 1
Format : AC-3
Format/Info : Audio Coding 3
Mode extension : CM (complete main)
Codec ID : 2000
Duration : 1h 46mn
Bit rate mode : Constant
Bit rate : 448 Kbps
Channel(s) : 6 channels
Channel positions : Front: L C R, Side: L R, LFE
Sampling rate : 48.0 KHz
Bit depth : 16 bits
Compression mode : Lossy
Delay relative to video : 8ms
Stream size : 342 MiB (16%)
Alignment : Split accross interleaves

Audio #2
ID : 2
Format : AC-3
Format/Info : Audio Coding 3
Mode extension : CM (complete main)
Codec ID : 2000
Duration : 1h 46mn
Bit rate mode : Constant
Bit rate : 448 Kbps
Channel(s) : 6 channels
Channel positions : Front: L C R, Side: L R, LFE
Sampling rate : 48.0 KHz
Bit depth : 16 bits
Compression mode : Lossy
Stream size : 342 MiB (16%)
Alignment : Split accross interleaves
pic pic pic
Для увеличения картинки щелкните мышкой по превью

Этот торрент недоступен для скачивания без регистрации, однако доступен по публичной magnet-ссылке (источники с публичных трекеров). Перед использованием ссылки прочтите, пожалуйста Пользовательское соглашение, а также как можно дольше оставайтесь на раздаче! Для того, чтобы скачать сам торрент-файл (который видит больше источников), а также для того, чтобы поблагодарить релизера, вам необходимо зарегистрироваться. Если регистрироваться лень - вы можете также попробовать скачать релиз по нашим партнерским ссылкам ниже.

[underverse.su].t46045.torrent
Трекер: Зарегистрирован   [ 09.11.2014 08:41 ]  

Статус: проверено (by Паукан at 09.11.2014 08:41)
Поблагодарили: пока никто не поблагодарил...
Тип торрента: публичный - доступные источники с открытых трекеров: 
Размер: 2,03 GB (занимает 0,46 DVDR, для записи нужно 1 болванка DVDR/RW)
 
 

Яндекс.Метрика powered by Sphinx


В Н И М А Н И Е
Сайт не распространяет и не хранит электронные версии произведений, а лишь бесплатно и без коммерческой выгоды (не требуя взамен платы,
SMS и т.д.) предоставляет доступ к создаваемому пользователями каталогу ссылок на торрент-файлы, которые содержат только списки хеш-сумм.
Убедительная просьба с жалобами обращаться напрямую к пользователю, разместившему торрент файл.

Вверх