Loading...
Error

Маршрут (1 - 8 серии из 8) (Владимир Фатьянов) [2007 г., Приключения, DVDRip]

Статистика раздачи
Размер:  4,07 GB   |    Зарегистрирован:  2 года   |    Скачан:  23 раза

Полного источника не было: 11 месяцев

Сидов:  0  |  0 KB/s  ]   Личеров:  0  |  0 KB/s  ]

* - сиды/пиры с внешних источников

   
 
Автор Сообщение

viktor.r-79 Пол:Муж

08-Ноя-2014 07:29

Маршрут

Год выпуска: 2007
Жанр: Приключения
Страна: Россия
Режиссер: Владимир Фатьянов
В ролях: Александр Абдулов, Игорь Лифанов, Юрий Беляев, Евгений Березовский, Елена Дробышева, Константин Кожевников, Сергей Краснов, Владимир Миронов, Яна Чигир, Дмитрий Горевой
Сюжет фильма:
Фильм основан на реальных событиях. В сентябре 1941 года, когда немцы подступали к Крыму, из керченского музея эвакуировали клад, обнаруженнный при раскопках горы Митридат. Бесценный груз был направлен в партизанский отряд в горы Адыгеи. Однако об этом стало известно фашистской разведке и она отслеживала движение клада. Но он бесследно исчез. Только в середине 70-х некоторые из драгоценностей были найдены рядом с туристической тропой. Поиски сокровищ возобновили органы госбезопасности, но найти ничего не удалось. Уже в наше время охоту за кладом продолжил один из бывших работников КГБ. Начал поиски и оставшийся в живых член немецкой спецкоманды. В 70-х годах произошло одно трагическое событие. Примерно там же, где нашли остатки клада, на известном туристическом маршруте погибли 20 человек. Но нескольким туристам из группы удалось остаться в живых, их отыскали в горах инструкторы спасатели. И вот спустя годы один из уцелевших, уже с женой и двумя детьми, возвратился в Адыгею, чтобыпройти этот маршрут заново. В горах Кавказа он встретил того самого инструктора, который спас ему жизнь, и он согласился стать их проводником. Но по этому же маршруте движутся немецкие искатели клада и бывшие работники спецслужб.

Качество видео: DVDRip

Продолжительность: 8 x ~ 00:51:38
Формат: AVI
Видео: XviD, 704x384 , 1 149 Kbps
Аудио: русский, не требуется, AC3 5.1, 256 kbps
D:\торрент\Marschrut 2007 god DVDRip\avi
General
Complete name : D:\торрент\Marschrut 2007 god DVDRip\avi
Format : AVI
Format/Info : Audio Video Interleave
File size : 523 MiB
Duration : 51mn 38s
Overall bit rate : 1 415 Kbps
Writing application : VirtualDubMod 1.5.10.2 (build 2540/release)
Writing library : VirtualDubMod build 2540/release
Video #0
ID : 0
Format : MPEG-4 Visual
Format profile : Advanced Simple@L5
Format settings, BVOP : 2
Format settings, QPel : No
Format settings, GMC : No warppoints
Format settings, Matrix : Default (H.263)
Muxing mode : Packed bitstream
Codec ID : XVID
Codec ID/Hint : XviD
Duration : 51mn 38s
Bit rate : 1 149 Kbps
Width : 704 pixels
Height : 384 pixels
Display aspect ratio : 16:9
Frame rate : 25.000 fps
Color space : YUV
Chroma subsampling : 4:2:0
Bit depth : 8 bits
Scan type : Progressive
Compression mode : Lossy
Bits/(Pixel*Frame) : 0.170
Stream size : 424 MiB (81%)
Writing library : XviD 1.0.3 (UTC 2004-12-20)
Audio #1
ID : 1
Format : AC-3
Format/Info : Audio Coding 3
Mode extension : CM (complete main)
Codec ID : 2000
Duration : 51mn 38s
Bit rate mode : Constant
Bit rate : 256 Kbps
Channel(s) : 6 channels
Channel positions : Front: L C R, Side: L R, LFE
Sampling rate : 48.0 KHz
Bit depth : 16 bits
Compression mode : Lossy
Delay relative to video : 8ms
Stream size : 94.6 MiB (18%)
Alignment : Split accross interleaves
Interleave, duration : 40 ms (1.00 video frame)
Interleave, preload duration : 500 ms
picpicpic
Для увеличения картинки щелкните мышкой по превью

Этот торрент недоступен для скачивания без регистрации, однако доступен по публичной magnet-ссылке (источники с публичных трекеров). Перед использованием ссылки прочтите, пожалуйста Пользовательское соглашение, а также как можно дольше оставайтесь на раздаче! Для того, чтобы скачать сам торрент-файл (который видит больше источников), а также для того, чтобы поблагодарить релизера, вам необходимо зарегистрироваться. Если регистрироваться лень - вы можете также попробовать скачать релиз по нашим партнерским ссылкам ниже.

[underverse.su].t46037.torrent
Трекер: Зарегистрирован   [ 08.11.2014 07:29 ]  

Статус: проверено (by nemos at 08.11.2014 08:16)
Поблагодарили: 3 человека
Тип торрента: публичный - доступные источники с открытых трекеров: 
Размер: 4,07 GB (занимает 0,93 DVDR, для записи нужно 1 болванка DVDR/RW)
 
 

Яндекс.Метрика powered by Sphinx


В Н И М А Н И Е
Сайт не распространяет и не хранит электронные версии произведений, а лишь бесплатно и без коммерческой выгоды (не требуя взамен платы,
SMS и т.д.) предоставляет доступ к создаваемому пользователями каталогу ссылок на торрент-файлы, которые содержат только списки хеш-сумм.
Убедительная просьба с жалобами обращаться напрямую к пользователю, разместившему торрент файл.

Вверх