Loading...
Error

101 далматинец / 101 Dalmatians / Сезон 1, 2 / Серии 1-65 (Виктор Кук / Victor Cook) [1997, комедия, приключение, DVB СТС] Dub

Статистика раздачи
Размер:  40,2 GB   |    Зарегистрирован:  2 года   |    Скачан:  3 раза

Полного источника не было: 9 месяцев

Сидов:  0  |  0 KB/s  ]   Личеров:  0  |  0 KB/s  ]

* - сиды/пиры с внешних источников

   
 
Автор Сообщение

uzi2009 Пол:Муж

07-Ноя-2014 13:42

101 далматинец / 101 Dalmatians

Страна: США
Жанр: анимация, приключения
Продолжительность: 00:21:00 (серия)
Год выпуска: 1997
Перевод: Профессиональный (Дублированный) Студия «Невафильм»
Режиссёр: Виктор Кук / Victor Cook
Роли озвучивали: Доди Смит, Памела Эдлон, Деби Мэй Вест, Кэт Сьюси, Тара Стронг, Эйприл Уинчелл, Джим Каммингс, Джефф Беннетт, Фрэнк Уэлкер, Шарлотта Рэй, Пэм Доубер, Кевин Шон и др.
Роли Дублировали: Иван Данко — Лаки, Владимир Гарин — Ролли, Эльвира Ишмуратова — Кнопка, Ольга Белявская — Квока, Елена Павловская (в некоторых сериях — Наталья Данилова) — Стервелла Де Виль
Описание: Компьютерщик Роджер Деали, его жена Анита, горничная и кухарка Няня, а также Понго, Пэдди и их щенки переезжают из Лондона на ферму. В непосредственной близости проживает Стервелла Де Виль, которая не оставляет попыток прибрать к рукам щенков и сшить из шкурок шубу. В центре внимания приключения трёх маленьких далматинцев, которые не только успешно противостоят Стервелле, но и переживают множество других приключений.
01 - Диск сорвался с поводка. Кушай, никого не слушай
02 - За зайцем погонишься.... Кто станет звздой
03 - Суматоха в супермаркете. Радость одиночества
04 - Засудим на досуге. Слышу - лают, а о чём - не знаю
05 - Наша личная конура. Гусиная кожа
06 - Я не трусливый цыплёнок. Почему-у мы лаемся, я не пойму
07 - 101 день рождения
08 - Опасная афера. Кадет месяца
09 - Четыре (концовки) истории
10 - Собачий рок. За решеткой
11 - Сокровище болотного острова. Повелитель термитов
12 - Кораблекрушение
13 - На болоте. Свинопес
14 - Гражданин Лаки
15 - Фонтан молодости. Попробуй, побудь на моём насесте
16 - Борьба с дымом. История про омара
17 - Уколы и проколы. Про белого барана
18 - Изумительный день Святого Валентина
19 - В снежном плену. Грызть или жить
20 - Приключения в торговом центре
21 - В поисках Врюзла. Жизнь героя
22 - Про грязь. Надувательство
23 - Большое яйцо
24 - Грибы среди нас
25 - Ярмарка. Пришельцы
26 - Вредная Айви. Двенадцать разгневанных щенков
27 - Мир Стервеллы
28 - Роковой фильм. Моя прекрасная цыпа
29 - Виртуальный Лаки
30 - Привет главный. Пища для размышлений
31 - Жив и здоров. Собака-кинозвезда
32 - Два лица Аниты
33 - Квока бывшая художница. Нос не ошибается
34 - Прощай цыпленок
35 - К - значит корм
36 - Робот Ролли. Большой бултых
37 - Щенки-купидоны
38 - Няня обманщица. Голова-конус
39 - Сотворение
40 - Гуманист года
41 - Переворот Де Вилль
42 - Конкурс красоты. Никуда не денешься от свиньи
43 - Каналы. Лаки не везет
44 - Де Виль старший
45 - Победитель собачьего шоу. Риск - благородное дело
46 - Гав юрского периода. Мой прекрасный Мучи
47 - Хорас и Джаспер делают карьеру
48 - Праздник собачьего корма. Фея-курица
49 - Добрая Стервелла. Банкет в чужом доме
50 - Каникулы далматинцев, часть 1. Покорители дорог
51 - Каникулы далматинцев, часть 2. Опасный маршрут
52 - Каникулы далматинцев, часть 3. Возлюбленная пара
53 - Одна большая курица. Деньгам - место
54 - Где лай, там родной край
55 - Он пошёл за мной. Любовь и блохи
56 - Страшное мяу в полдень. Ври да не завирайся
57 - Двое для шоу. Офицер и пёс-джентльмен
58 - Совсем плохой. Стервелла - девчушка из южной деревушки
59 - Серенада для свиньи. Берегись падающих кумиров
60 - Высокая цена славы. Большое кошачье нашествие
61 - Вагон на миллион
62 - Ролли - мама-курица. Безумная крошка Пипс
63 - Собаки де Вилль. Лучший друг собаки
64 - Безумный старт. Экстрасенс и убытки
65 - Рождественская ночь Стервеллы


Качество: DVB
Формат: : TS
Видео: 720x576 (4:3), 25.000 fps, AVC, ~3579 Kbps
Аудио: MPEG Audio, 48.0 KHz, 2 channels, 256 Kbps
Дополнительная информация: Данный релиз является самым лучшим по качеству. В отличие от записей с канала Дисней, в данном показе сохранены оригинальные названия серий (на английском) и оригинальное написание названия, также сохранены все варианты заставки, на диснее был оставлен всего лишь один вариант.
Спасибо: xfiles за помощь в записи мультсериала
Релиз:


GeneralID : 1 (0x1)Complete name : I:\Мультсериалы\101 Далматинец (СТС)\101 далматинец (СТС)\101 далматинец - 44 - Де Виль старший.tsFormat : MPEG-TSFormat/Info : Advanced Video CodecFile size : 633 MiBDuration : 21mn 55sOverall bit rate : 4 036 Kbps

VideoID : 1801 (0x709)Menu ID : 1 (0x1)Format : AVCFormat/Info : Advanced Video CodecFormat profile : High@L3.0Format settings, CABAC : YesFormat settings, ReFrames : 3 framesFormat settings, GOP : M=1, N=42Codec ID : 27Duration : 21mn 54sBit rate : 3 578 KbpsWidth : 720 pixelsHeight : 576 pixelsDisplay aspect ratio : 4:3Frame rate : 25.000 fpsStandard : ComponentColor space : YUVChroma subsampling : 4:2:0Bit depth : 8 bitsScan type : InterlacedScan order : Top Field FirstBits/(Pixel*Frame) : 0.345Stream size : 561 MiB (89%)Color primaries : BT.470-6 System B, BT.470-6 System G, BT.601-6 625, BT.1358 625, BT.1700 625 PAL, BT.1700 625 SECAMTransfer characteristics : BT.470-6 System B, BT.470-6 System GMatrix coefficients : BT.470-6 System B, BT.470-6 System G, BT.601-6 625, BT.1358 625, BT.1700 625 PAL, BT.1700 625 SECAM, IEC 61966-2-4 601

AudioID : 2801 (0xAF1)Menu ID : 1 (0x1)Format : MPEG AudioFormat version : Version 1Format profile : Layer 2Codec ID : 3Duration : 21mn 54sBit rate mode : ConstantBit rate : 256 KbpsChannel(s) : 2 channelsSampling rate : 48.0 KHzCompression mode : LossyStream size : 40.1 MiB (6%)Language : English
pic pic pic pic pic

Этот торрент недоступен для скачивания без регистрации, однако доступен по публичной magnet-ссылке (источники с публичных трекеров). Перед использованием ссылки прочтите, пожалуйста Пользовательское соглашение, а также как можно дольше оставайтесь на раздаче! Для того, чтобы скачать сам торрент-файл (который видит больше источников), а также для того, чтобы поблагодарить релизера, вам необходимо зарегистрироваться. Если регистрироваться лень - вы можете также попробовать скачать релиз по нашим партнерским ссылкам ниже.

[underverse.su].t46022.torrent
Трекер: Зарегистрирован   [ 07.11.2014 13:42 ]  

Статус: проверено (by Паукан at 07.11.2014 14:59)
Поблагодарили: пока никто не поблагодарил...
Тип торрента: публичный - доступные источники с открытых трекеров: 
Размер: 40,2 GB (занимает 9,18 DVDR, для записи нужно 10 болванок DVDR/RW)
 
 
Похожие темы
Форум Тема Автор Торрент Отв. Посл. сооб.
Архив 101 далматинец 2: Приключения в Лондоне / 101 Dalmatians II: Patch's London Adventure (Джим Каммерад, Брайан Смит) [2003 г., мультфильм, семейный, DVDRip] Алексей 25
0 | 0

1 | 1622

0

16.06.2011 08:09


Яндекс.Метрика powered by Sphinx


В Н И М А Н И Е
Сайт не распространяет и не хранит электронные версии произведений, а лишь бесплатно и без коммерческой выгоды (не требуя взамен платы,
SMS и т.д.) предоставляет доступ к создаваемому пользователями каталогу ссылок на торрент-файлы, которые содержат только списки хеш-сумм.
Убедительная просьба с жалобами обращаться напрямую к пользователю, разместившему торрент файл.

Вверх