Loading...
Error

Дни грома / Days of Thunder (Тони Скотт / Tony Scott) [1990 г., драма, спорт, мелодрама, BDRip] MVO + Original HQ Underverse

Статистика раздачи
Размер:  2,18 GB   |    Зарегистрирован:  2 года   |    Скачан:  7 раз
Сидов:  1  |  0 KB/s  ]   Личеров:  0  |  0 KB/s  ]

* - сиды/пиры с внешних источников

   
 
Автор Сообщение

HQ Underverse 

07-Ноя-2014 10:06

Дни грома / Days of Thunder


Год выпуска: 1990
Жанр: драма, спорт, мелодрама
Страна: США
Режиссер: Тони Скотт / Tony Scott
В ролях: Том Круз, Николь Кидман, Роберт Дювалл, Рэнди Куэйд, Кэри Элвис, Майкл Рукер, Фред Долтон Томпсон, Джон Си Райли, Дж. К. Куин, Дон Симпсон
Сюжет фильма:
Гонщик Коул Трикл молод и мало кому известен, но он не боится скорости и на полном ходу может вписаться в самый крутой поворот. На гонках главным соперником Коула становится более опытный спортсмен Роуди Бернс. Но ни Коул, ни Роуди не доходят до финишной черты: происходит сильное столкновение, в результате которого соперники оказываются в одной больничной палате…

  • Мировая премьера: 27 июня 1990

/
Качество видео: BDRip

Продолжительность: 01:47:17
Формат: avi
Видео: XviD, 720x304, 1991 kbps
Аудио #1: русский, многоголосый закадровый [профессиональный], AC3 5.1, 448 kbps
Аудио #2: английский, оригинал, AC3 5.1, 448 kbps
Аудио #3: русский, двухголосый закадровый [профессиональный, Супербит], AC3 5.1, 448 kbps (отдельным файлом)
Аудио #4: русский, многоголосый закадровый [профессиональный, СТС (с VHS)], AC3 2.0, 192 kbps (отдельным файлом)
Аудио #5: украинский, многоголосый закадровый [профессиональный, Інтер (спасибо Hurtom)], AC3 5.1, 448 kbps (отдельным файлом)
Субтитры #1: внешние, SRT, английский
Субтитры #2: внешние, SRT, русский

Семпл: http://multi-up.com/1011588

Релиз группы:

Код:

General
Complete name                            : D:\Video\Movies\Releases\Days.of.Thunder.1990.BDRip.XviD.AC3.Rus.MVO.Eng.O.HQ.Underverse.avi
Format                                   : AVI
Format/Info                              : Audio Video Interleave
Format profile                           : OpenDML
File size                                : 2.18 GiB
Duration                                 : 1h 47mn
Overall bit rate                         : 2 905 Kbps
Writing application                      : VirtualDubMod 1.5.10.3 | www.virtualdub-fr.org || (build 2550/release)
Writing library                          : VirtualDubMod build 2550/release

Video
ID                                       : 0
Format                                   : MPEG-4 Visual
Format profile                           : Advanced Simple@L5
Format settings, BVOP                    : 1
Format settings, QPel                    : No
Format settings, GMC                     : No warppoints
Format settings, Matrix                  : Custom
Codec ID                                 : XVID
Codec ID/Hint                            : XviD
Duration                                 : 1h 47mn
Bit rate                                 : 1 991 Kbps
Width                                    : 720 pixels
Height                                   : 304 pixels
Display aspect ratio                     : 2.35:1
Frame rate                               : 23.976 fps
Color space                              : YUV
Chroma subsampling                       : 4:2:0
Bit depth                                : 8 bits
Scan type                                : Progressive
Compression mode                         : Lossy
Bits/(Pixel*Frame)                       : 0.379
Stream size                              : 1.49 GiB (69%)
Writing library                          : XviD 64

Audio #1
ID                                       : 1
Format                                   : AC-3
Format/Info                              : Audio Coding 3
Mode extension                           : CM (complete main)
Format settings, Endianness              : Big
Codec ID                                 : 2000
Duration                                 : 1h 47mn
Bit rate mode                            : Constant
Bit rate                                 : 448 Kbps
Channel(s)                               : 6 channels
Channel positions                        : Front: L C R, Side: L R, LFE
Sampling rate                            : 48.0 KHz
Bit depth                                : 16 bits
Compression mode                         : Lossy
Stream size                              : 344 MiB (15%)
Alignment                                : Split accross interleaves
Interleave, duration                     : 42 ms (1.00 video frame)
Interleave, preload duration             : 500 ms
Title                                    : Russian MVO

Audio #2
ID                                       : 2
Format                                   : AC-3
Format/Info                              : Audio Coding 3
Mode extension                           : CM (complete main)
Format settings, Endianness              : Big
Codec ID                                 : 2000
Duration                                 : 1h 47mn
Bit rate mode                            : Constant
Bit rate                                 : 448 Kbps
Channel(s)                               : 6 channels
Channel positions                        : Front: L C R, Side: L R, LFE
Sampling rate                            : 48.0 KHz
Bit depth                                : 16 bits
Compression mode                         : Lossy
Stream size                              : 344 MiB (15%)
Alignment                                : Split accross interleaves
Interleave, duration                     : 42 ms (1.00 video frame)
Interleave, preload duration             : 500 ms
Title                                    : English
picpicpicpic
Для увеличения картинки щелкните мышкой по превью

Этот торрент недоступен для скачивания без регистрации, однако доступен по публичной magnet-ссылке (источники с публичных трекеров). Перед использованием ссылки прочтите, пожалуйста Пользовательское соглашение, а также как можно дольше оставайтесь на раздаче! Для того, чтобы скачать сам торрент-файл (который видит больше источников), а также для того, чтобы поблагодарить релизера, вам необходимо зарегистрироваться. Если регистрироваться лень - вы можете также попробовать скачать релиз по нашим партнерским ссылкам ниже.

[underverse.su].t46020.torrent
Трекер: Зарегистрирован   [ 26.11.2014 09:08 ]  

Статус: проверено (by Паукан at 01.12.2014 16:15)
Поблагодарили: 2 человека
Тип торрента: публичный - доступные источники с открытых трекеров: 
Размер: 2,18 GB (занимает 1/2 DVDR, для записи нужно 1 болванка DVDR/RW)
 
 

Яндекс.Метрика powered by Sphinx


В Н И М А Н И Е
Сайт не распространяет и не хранит электронные версии произведений, а лишь бесплатно и без коммерческой выгоды (не требуя взамен платы,
SMS и т.д.) предоставляет доступ к создаваемому пользователями каталогу ссылок на торрент-файлы, которые содержат только списки хеш-сумм.
Убедительная просьба с жалобами обращаться напрямую к пользователю, разместившему торрент файл.

Вверх