Loading...
Error

Страховщик / Automata (Габе Ибаньес ) [2014, Фантастика, триллер, BDRip-AVC] Dub (RUS) |iTunesRussia| + Subs (RUS, ENG)

Статистика раздачи
Размер:  1,46 GB   |    Зарегистрирован:  2 года 1 месяц   |    Скачан:  58 раз

Полного источника не было: 3 месяца 6 дней

Сидов:  0  |  0 KB/s  ]   Личеров:  0  |  0 KB/s  ]

* - сиды/пиры с внешних источников

   
 
Автор Сообщение

viktor.r-79 Пол:Муж

04-Ноя-2014 19:44

«Ваше время подошло к концу. Наше только начинается»

Год выпуска: 2014
Страна: Испания, Болгария / Green Moon, Nu Boyana Viburno
Жанр: Фантастика, триллер
Продолжительность: 01:49:54
Перевод: Профессиональный (полное дублирование) [iTunes]
Cубтитры: Русские (Notabenoid), английские (Full + SDH)
Навигация по главам: Есть
Режиссер:
Габе Ибаньес
В ролях:
Антонио Бандерас, Биргитта Йорт Сёренсен, Мелани Гриффит, Дилан МакДермотт, Роберт Форстер, Тим МакИннерни, Энди Найман, Дэвид Райалл, Эндрю Тирнан, Криста Кэмпбель

Описание:
Главным героем фильма станет страховой агент компании по изготовлению роботов Жак Вокан, который обнаруживает, что изобретаемые роботы создаются не для эксплуатации, а для истребления.
Качество: BDRip-AVC
Формат: MKV
Видео кодек: х.264
Аудио кодек: AC-3
Видео: 984x416 (2,35:1), 23,976 fps, 1518 kbps, 0.155 bit/pixel
Аудио: 48 kHz, AC3 Dolby Digital, 3/2 (L,C,R,l,r) ch, 384.00 kbps
Уникальный идентификатор : 182788434355306147832912185464665751668 (0x8983C59CA19F07148246BC20638D4074)
Полное имя : D:\торрент\Strahovschik.2014.RUS.BDRip.x264.-HELLYWOOD.mkv
Формат : Matroska
Версия формата : Version 4 / Version 2
Размер файла : 1,46 Гбайт
Продолжительность : 1 ч. 49 м.
Общий поток : 1904 Кбит/сек
Название фильма : Automata (2014) - HELLYWOOD
Дата кодирования : UTC 2014-11-04 17:22:51
Программа кодирования : mkvmerge v5.9.0 ('On The Loose') built on Dec 15 2012 16:39:58
Библиотека кодирования : libebml v1.3.0 + libmatroska v1.4.0

Видео
Идентификатор : 1
Формат : AVC
Формат/Информация : Advanced Video Codec
Профиль формата : High@L4.1
Параметр CABAC формата : Да
Параметр ReFrames формата : 12 кадров
Идентификатор кодека : V_MPEG4/ISO/AVC
Продолжительность : 1 ч. 49 м.
Битрейт : 1518 Кбит/сек
Ширина : 984 пикселя
Высота : 416 пикселей
Соотношение сторон : 2,35:1
Частота кадров : 23,976 кадра/сек
Цветовое пространство : YUV
Субдискретизация насыщенности : 4:2:0
Битовая глубина : 8 бит
Тип развёртки : Прогрессивная
Бит/(Пиксели*Кадры) : 0.155
Размер потока : 1,14 Гбайт (78%)
Заголовок : potroks
Библиотека кодирования : x264 core 130 r2273 b3065e6
Настройки программы : cabac=1 / ref=12 / deblock=1:-3:-3 / analyse=0x3:0x133 / me=umh / subme=11 / psy=1 / psy_rd=1.02:0.00 / mixed_ref=1 / me_range=48 / chroma_me=1 / trellis=2 / 8x8dct=1 / cqm=0 / deadzone=21,11 / fast_pskip=0 / chroma_qp_offset=-2 / threads=6 / lookahead_threads=1 / sliced_threads=0 / nr=0 / decimate=0 / interlaced=0 / bluray_compat=0 / constrained_intra=0 / bframes=13 / b_pyramid=2 / b_adapt=2 / b_bias=0 / direct=3 / weightb=1 / open_gop=0 / weightp=2 / keyint=250 / keyint_min=23 / scenecut=40 / intra_refresh=0 / rc_lookahead=60 / rc=2pass / mbtree=0 / bitrate=1518 / ratetol=1.0 / qcomp=0.72 / qpmin=0 / qpmax=69 / qpstep=4 / cplxblur=20.0 / qblur=0.5 / vbv_maxrate=50000 / vbv_bufsize=62500 / nal_hrd=none / ip_ratio=1.35 / pb_ratio=1.25 / aq=2:0.80
Язык : English
Default : Да
Forced : Нет

Аудио
Идентификатор : 2
Формат : AC-3
Формат/Информация : Audio Coding 3
Расширение режима : CM (complete main)
Идентификатор кодека : A_AC3
Продолжительность : 1 ч. 49 м.
Вид битрейта : Постоянный
Битрейт : 384 Кбит/сек
Каналы : 6 каналов
Расположение каналов : Front: L C R, Side: L R, LFE
Частота : 48,0 КГц
Битовая глубина : 16 бит
Метод сжатия : С потерями
Размер потока : 302 Мбайт (20%)
Заголовок : Dub | DD 5.1 @ 384 kbps - iTunes
Язык : Russian
Default : Да
Forced : Нет

Текст #1
Идентификатор : 3
Формат : UTF-8
Идентификатор кодека : S_TEXT/UTF8
Идентификатор кодека/Информация : UTF-8 Plain Text
Заголовок : Notabenoid
Язык : Russian
Default : Нет
Forced : Нет

Текст #2
Идентификатор : 4
Формат : UTF-8
Идентификатор кодека : S_TEXT/UTF8
Идентификатор кодека/Информация : UTF-8 Plain Text
Заголовок : Full
Язык : English
Default : Нет
Forced : Нет

Текст #3
Идентификатор : 5
Формат : UTF-8
Идентификатор кодека : S_TEXT/UTF8
Идентификатор кодека/Информация : UTF-8 Plain Text
Заголовок : SDH
Язык : English
Default : Нет
Forced : Нет

Меню
00:00:00.000 : :Chapter 01
00:09:40.453 : :Chapter 02
00:18:46.916 : :Chapter 03
00:28:32.835 : :Chapter 04
00:39:07.094 : :Chapter 05
00:47:33.475 : :Chapter 06
00:56:55.954 : :Chapter 07
01:06:05.503 : :Chapter 08
01:17:27.809 : :Chapter 09
01:26:11.957 : :Chapter 10
01:34:06.474 : :Chapter 11
01:44:53.412 : :Chapter 12
01:49:54.087 : :Chapter 13
pic pic pic pic pic
pic pic pic pic pic
Для увеличения картинки щелкните мышкой по превью
Автор рипа: potroks

Этот торрент недоступен для скачивания без регистрации, однако доступен по публичной magnet-ссылке (источники с публичных трекеров). Перед использованием ссылки прочтите, пожалуйста Пользовательское соглашение, а также как можно дольше оставайтесь на раздаче! Для того, чтобы скачать сам торрент-файл (который видит больше источников), а также для того, чтобы поблагодарить релизера, вам необходимо зарегистрироваться. Если регистрироваться лень - вы можете также попробовать скачать релиз по нашим партнерским ссылкам ниже.

[underverse.su].t45941.torrent
Трекер: Зарегистрирован   [ 04.11.2014 19:44 ]  

Статус: T временная (by nemos at 04.11.2014 21:32)
Поблагодарили: 2 человека
Тип торрента: публичный - доступные источники с открытых трекеров: 
Размер: 1,46 GB (занимает 0,33 DVDR, для записи нужно 1 болванка DVDR/RW)
 
 
Похожие темы
Форум Тема Автор Торрент Отв. Посл. сооб.
T Зарубежное кино [DVDRip, Low-Res HDRip, и т.д.] Страховщик / Automata (Габе Ибаньес) [2014 г., Фантастика, Триллер, WEB-DLRip] VO (RUS, R.A.I.M.) + Original (ENG) Ведьмочка
0 | 0

0 | 849

24

13.10.2014 08:40

T Зарубежное кино [DVDRip, Low-Res HDRip, и т.д.] Страховщик / Automata (Габе Ибаньес) [2014 г., Фантастика, Триллер, WEB-DLRip] VO (RUS, R.A.I.M.) Ведьмочка
0 | 0

0 | 2674

134

13.10.2014 08:43

T Зарубежное кино [DVDRip, Low-Res HDRip, и т.д.] Страховщик / Automata (Габе Ибаньес) [2014 г., Фантастика, Триллер, WEB-DLRip-AVC] VO (RUS, R.A.I.M.) + Original (ENG) + Subs (RUS, ENG) Ведьмочка
0 | 0

0 | 880

69

14.10.2014 05:01

Зарубежное кино [DVDRip, Low-Res HDRip, и т.д.] Страховщик / Automata (Габе Ибаньес) [2014, Фантастика, Триллер, WEB-DLRip] DVO viktor.r-79
0 | 0

0 | 924

56

21.10.2014 17:41

Зарубежное кино [DVDRip, Low-Res HDRip, и т.д.] Страховщик / Automata (Габе Ибаньес) [2014 г., фантастика, триллер, BDRip] Dub 90ytr90
4 | 0

0 | 3042

28

16.12.2014 15:16

Зарубежное кино [DVDRip, Low-Res HDRip, и т.д.] Страховщик / Automata (Габе Ибаньес) [2014 г., фантастика, триллер, HDRip] Dub + Original (Eng) + Sub (Rus, Eng) 90ytr90
0 | 0

0 | 2990

11

16.12.2014 16:12

T Зарубежное кино [HDDVDRip / BDRip / WEB-DL / HDTV 1080/720р] Страховщик / Automata (Габе Ибаньес) [2014 г., Фантастика, Триллер, WEB-DL 720p] VO (RUS, R.A.I.M.) + Original (ENG) + Subs (RUS, ENG) Ведьмочка
2 | 1

0 | 1139

91

13.10.2014 08:35

T Зарубежное кино [HDDVDRip / BDRip / WEB-DL / HDTV 1080/720р] Страховщик / Automata (Габе Ибаньес) [2014 г., фантастика, триллер, BDRip 720p] Dub (iTunes) + AVO (Есарев) + Original (Eng) + Sub (Rus, Eng) 90ytr90
0 | 0

0 | 471

10

24.11.2014 16:21

Зарубежное кино [HDDVDRip / BDRip / WEB-DL / HDTV 1080/720р] Страховщик / Automata (Габе Ибаньес) [2014 г., фантастика, триллер, BDRip] Dub + Original + Sub (Rus,Eng) Паукан
10 | 3

0 | 3197

19

16.12.2014 17:19

Зарубежное кино [HDDVDRip / BDRip / WEB-DL / HDTV 1080/720р] Страховщик / Automata (Габе Ибаньес / Gabe Ibanez) [2014 г., фантастика, триллер, BDRip 720p] Dub + Original + Sub (Rus,Eng) Паукан
0 | 0

0 | 3465

60

16.12.2014 17:23


Яндекс.Метрика powered by Sphinx


В Н И М А Н И Е
Сайт не распространяет и не хранит электронные версии произведений, а лишь бесплатно и без коммерческой выгоды (не требуя взамен платы,
SMS и т.д.) предоставляет доступ к создаваемому пользователями каталогу ссылок на торрент-файлы, которые содержат только списки хеш-сумм.
Убедительная просьба с жалобами обращаться напрямую к пользователю, разместившему торрент файл.

Вверх