Loading...
Error

Пятницкий. Глава четвертая (1-32 серия из 32) (Григорий Федоров, Олег Галин) [2014 г., драма, криминал, SatRip]

Статистика раздачи
Размер:  18,43 GB   |    Зарегистрирован:  2 года 3 месяца   |    Скачан:  12 раз
Сидов:  1  |  5 KB/s  ]   Личеров:  0  |  0 KB/s  ]

* - сиды/пиры с внешних источников

   
 
Автор Сообщение

nemos Пол:Муж

04-Ноя-2014 08:19

Пятницкий. Глава четвертая


Год выпуска: премьера (мир) 3 ноября 2014
Жанр: драма, криминал
Страна: Россия
Режиссер: Григорий Федоров, Олег Галин
В ролях: Дмитрий Мазуров, Виктория Тарасова, Владислав Котлярский, Денис Рожков, Анна Липко, Антон Батырев, Георгий Тополага, Андрей Сорока, Антон Афанасьев, Сергей Гурьев, Павел Мисаилов, Сандра Элиава, Игорь Стам, Роман Гапанюк, Мария Рассказова, Степан Рожнов, Денис Жариков, Дмитрий Фрид, Федор Румянцев, Валерий Новиков, Дарья Щербакова, Александр Лырчиков, Ольга Юрасова, Ольга Ефремова (III), Ирина Ивинская, Карина Реука, Артём Киселёв, Максим Январев
Сюжет фильма:
В четвертой главе сотрудникам «Пятницкого» противостоит новая сила: принципиальный сотрудник прокуратуры поставил перед собой цель разоблачить коррумпированную полицейскую группу, которую возглавляет Зимина. В конце концов, нашим героям предстоит осознать, насколько далеко они зашли, и от окончательного падения их будет отделять решающее голосование: убить или нет ради собственной безопасности достойного соперника, который не заслуживает смерти даже по их понятиям. Меж тем крепкие отношения в группе пошатнутся. Выдержат ли сотрудники «Пятницкого» очередную проверку на прочность и удастся ли Зиминой выйти сухой из воды, сохранив при этом друзей и человеческий облик?


Качество видео: SatRip

Продолжительность: 00:43:39 серия
Формат: AVI
Видео: DivX, 720x400, 1 648 kbps
Аудио: русский, MP3 2.0, 192 kbps

Код:

E:\Фильмы Раздача-1\Pjatnickij.4.2014.DivX.SATRip.ExKinoRay\Pjatnickij.4.(1.serija.iz.32).2014.DivX.SATRip.ExKinoRay.avi
   General
      Complete name : E:\Фильмы Раздача-1\Pjatnickij.4.2014.DivX.SATRip.ExKinoRay\Pjatnickij.4.(1.serija.iz.32).2014.DivX.SATRip.ExKinoRay.avi
      Format : AVI
      Format/Info : Audio Video Interleave
      File size : 578 MiB
      Duration : 43mn 39s
      Overall bit rate : 1 850 Kbps
      Writing library : Boilsoft AVI tool build 1/release
   Video #0
      ID : 0
      Format : MPEG-4 Visual
      Format settings, BVOP : 1
      Format settings, QPel : No
      Format settings, GMC : No warppoints
      Format settings, Matrix : Default (H.263)
      Muxing mode : Packed bitstream
      Codec ID : DX50
      Codec ID/Hint : DivX 5
      Duration : 43mn 39s
      Bit rate : 1 648 Kbps
      Width : 720 pixels
      Height : 400 pixels
      Display aspect ratio : 16:9
      Frame rate : 25.000 fps
      Color space : YUV
      Chroma subsampling : 4:2:0
      Bit depth : 8 bits
      Scan type : Progressive
      Compression mode : Lossy
      Bits/(Pixel*Frame) : 0.229
      Stream size : 515 MiB (89%)
      Writing library : DivX 6.8.5 (UTC 2009-08-20)
   Audio #1
      ID : 1
      Format : MPEG Audio
      Format version : Version 1
      Format profile : Layer 3
      Mode : Joint stereo
      Codec ID : 55
      Codec ID/Hint : MP3
      Duration : 43mn 39s
      Bit rate mode : Constant
      Bit rate : 192 Kbps
      Channel(s) : 2 channels
      Sampling rate : 48.0 KHz
      Compression mode : Lossy
      Stream size : 60.0 MiB (10%)
      Alignment : Split accross interleaves
      Interleave, duration : 40 ms (1.00 video frame)
      Interleave, preload duration : 500 ms
picpicpicpicpicpicpic
Для увеличения картинки щелкните мышкой по превью

Этот торрент недоступен для скачивания без регистрации, однако доступен по публичной magnet-ссылке (источники с публичных трекеров). Перед использованием ссылки прочтите, пожалуйста Пользовательское соглашение, а также как можно дольше оставайтесь на раздаче! Для того, чтобы скачать сам торрент-файл (который видит больше источников), а также для того, чтобы поблагодарить релизера, вам необходимо зарегистрироваться. Если регистрироваться лень - вы можете также попробовать скачать релиз по нашим партнерским ссылкам ниже.

[underverse.su].t46755.torrent
Трекер: Зарегистрирован   [ 28.11.2014 18:16 ]  

Статус: проверено (by nemos at 28.11.2014 18:16)
Поблагодарили: 5 человек
Тип торрента: публичный - доступные источники с открытых трекеров: 
Размер: 18,43 GB (занимает 4,21 DVDR, для записи нужно 5 болванок DVDR/RW)
 
 
Похожие темы
Форум Тема Автор Торрент Отв. Посл. сооб.
xUSSR сериалы Пятницкий. Глава вторая / Серии: 1-32(32) (Илья Куликов) [2012, Детектив, Драма, Криминал, SATRip] nemos
0 | 0

25 | 2620

5

11.02.2015 09:11

xUSSR сериалы Пятницкий. Глава третья / Серии 1-30 (30) (Григорий Фёдоров, Мичислав Юзовский) [2013 г., Детектив, криминал, драма, SatRip] nemos
3 | 0

1 | 5345

13

11.11.2013 16:20



Последний раз редактировалось: nemos (28.11.2014 18:16), всего редактировалось 15 раз(а)

ksa2 Пол:Муж

14-Ноя-2014 18:01

Ну и где сиды ? :evil:

nemos Пол:Муж

18-Ноя-2014 08:53

Раздача обновлена! 30 серий.

Яндекс.Метрика powered by Sphinx


В Н И М А Н И Е
Сайт не распространяет и не хранит электронные версии произведений, а лишь бесплатно и без коммерческой выгоды (не требуя взамен платы,
SMS и т.д.) предоставляет доступ к создаваемому пользователями каталогу ссылок на торрент-файлы, которые содержат только списки хеш-сумм.
Убедительная просьба с жалобами обращаться напрямую к пользователю, разместившему торрент файл.

Вверх