Loading...
Error

Неваляшка 2 (Анарио Мамедов) [2014 г., Комедия, спорт, DVDRip-AVC]

Статистика раздачи
Размер:  1,37 GB   |    Зарегистрирован:  2 года 1 месяц   |    Скачан:  90 раз
Сидов:  1  |  0 KB/s  ]   Личеров:  0  |  0 KB/s  ]

* - сиды/пиры с внешних источников

   
 
Автор Сообщение

viktor.r-79 Пол:Муж

03-Ноя-2014 20:39

Неваляшка 2

Год выпуска: 2014
Страна: Россия
Жанр: Комедия, спорт
Продолжительность: 01:25:31
Перевод: Не требуеться
Режиссер:
Анарио Мамедов
В ролях:
Павел Деревянко, Даниил Меркулов, Дмитрий Митюрич, Николай Хмелёв (II), Александр Песков

Описание:
История современного рыцаря, для которого честь и данное им обещание, прежде всего.Он был известным боксером, о нем говорил весь мир. В свое время он отказался от миллиона, ради собственных принципов. И сейчас он отошел от дел и работает скромным охранником в ювелирном магазине. Он честен, благороден и, практически не победим. За это и получил свое прозвище - Неваляшка. Но все меняется, когда Неваляшка влюбляется в Катю. Тем более, что ее незаслуженно обидели. Постоять за честь "прекрасной дамы" становится для него главной целью, ради которой он готов пойти на все. Ему даже приходится вернуться на ринг и участвовать в турнире по боям без правил, чтобы найти обидчика Кати, ставя под угрозу собственное здоровье и даже жизнь.
Качество: DVDRip-AVC
Формат: MKV
Видео кодек: x.264
Аудио кодек: AC3
Видео: 2062 Кбит/с, 768x322
Аудио: AC3, 2 ch, 192 Кбит/с
General
Unique ID : 175722762380637736687039874765237221193 (0x8432F91664760CF9A78E7DF9FFD37749)
Complete name : D:Neva liachka.(2014).DVBRip-AVC.[-=DoMiNo=-].mkv
Format : Matroska
Format version : Version 2
File size : 1.37 GiB
Duration : 1h 25mn
Overall bit rate : 2 300 Kbps
Encoded date : UTC 2014-11-03 18:28:10
Writing application : mkvmerge v6.1.0 ('Old Devil') built on Mar 4 2013 09:10:42
Writing library : libebml v1.3.0 + libmatroska v1.4.0

Video
ID : 1
Format : AVC
Format/Info : Advanced Video Codec
Format profile : High@L4.1
Format settings, CABAC : Yes
Format settings, ReFrames : 12 frames
Codec ID : V_MPEG4/ISO/AVC
Duration : 1h 25mn
Bit rate : 2 062 Kbps
Width : 768 pixels
Height : 322 pixels
Display aspect ratio : 2.40:1
Frame rate mode : Constant
Frame rate : 25.000 fps
Color space : YUV
Chroma subsampling : 4:2:0
Bit depth : 8 bits
Scan type : Progressive
Bits/(Pixel*Frame) : 0.334
Stream size : 1.23 GiB (90%)
Writing library : x264 core 130 r2273 b3065e6
Encoding settings : cabac=1 / ref=12 / deblock=1:-3:-3 / analyse=0x3:0x133 / me=umh / subme=11 / psy=1 / psy_rd=1.00:0.50 / mixed_ref=1 / me_range=48 / chroma_me=1 / trellis=2 / 8x8dct=1 / cqm=0 / deadzone=21,11 / fast_pskip=0 / chroma_qp_offset=-3 / threads=12 / lookahead_threads=4 / sliced_threads=0 / slices=4 / nr=0 / decimate=1 / interlaced=0 / bluray_compat=0 / constrained_intra=0 / bframes=12 / b_pyramid=2 / b_adapt=2 / b_bias=0 / direct=1 / weightb=1 / open_gop=0 / weightp=2 / keyint=250 / keyint_min=23 / scenecut=40 / intra_refresh=0 / rc=crf / mbtree=0 / crf=19.0 / qcomp=0.70 / qpmin=0 / qpmax=69 / qpstep=4 / ip_ratio=1.40 / pb_ratio=1.30 / aq=1:1.50
Default : Yes
Forced : No

Audio
ID : 2
Format : AC-3
Format/Info : Audio Coding 3
Mode extension : CM (complete main)
Format settings, Endianness : Big
Codec ID : A_AC3
Duration : 1h 25mn
Bit rate mode : Constant
Bit rate : 192 Kbps
Channel(s) : 2 channels
Channel positions : Front: L R
Sampling rate : 48.0 KHz
Bit depth : 16 bits
Compression mode : Lossy
Stream size : 118 MiB (8%)
Default : Yes
Forced : No
pic pic pic pic
Для увеличения картинки щелкните мышкой по превью

Этот торрент недоступен для скачивания без регистрации, однако доступен по публичной magnet-ссылке (источники с публичных трекеров). Перед использованием ссылки прочтите, пожалуйста Пользовательское соглашение, а также как можно дольше оставайтесь на раздаче! Для того, чтобы скачать сам торрент-файл (который видит больше источников), а также для того, чтобы поблагодарить релизера, вам необходимо зарегистрироваться. Если регистрироваться лень - вы можете также попробовать скачать релиз по нашим партнерским ссылкам ниже.

[underverse.su].t45898.torrent
Трекер: Зарегистрирован   [ 03.11.2014 20:40 ]  

Статус: проверено (by Ведьмочка at 04.11.2014 06:17)
Поблагодарили: 4 человека
Тип торрента: публичный - доступные источники с открытых трекеров: 
Размер: 1,37 GB (занимает 0,31 DVDR, для записи нужно 1 болванка DVDR/RW)
 
 
Похожие темы
Форум Тема Автор Торрент Отв. Посл. сооб.
Зарубежное кино [DVDRip, Low-Res HDRip, и т.д.] Неваляшка / Safe (Боаз Якин) [2013 г., пародия, боевик, комедия, BDRip] VO Чертёнок
1 | 0

1 | 1027

34

30.08.2013 15:40

Наше кино [DVDRip, Low-Res HDRip, и т.д.] Неваляшка (Роман Качанов) [2007 г., спорт, комедия, DVDRip-AVC] Original Доктор Ватсон
8 | 0

0 | 1151

9

07.01.2013 10:23


Яндекс.Метрика powered by Sphinx


В Н И М А Н И Е
Сайт не распространяет и не хранит электронные версии произведений, а лишь бесплатно и без коммерческой выгоды (не требуя взамен платы,
SMS и т.д.) предоставляет доступ к создаваемому пользователями каталогу ссылок на торрент-файлы, которые содержат только списки хеш-сумм.
Убедительная просьба с жалобами обращаться напрямую к пользователю, разместившему торрент файл.

Вверх