Loading...
Error

Убийство Кеннеди / Killing Kennedy (Нельсон МакКормик / Nelson McCormick) [2013, Драма, биография, история, BDRip-AVC] VO (RUS) + Original (ENG) + Subs (ENG)

Статистика раздачи
Размер:  2,02 GB   |    Зарегистрирован:  2 года 1 месяц   |    Скачан:  16 раз

Полного источника не было: 5 месяцев 25 дней

Сидов:  0  |  0 KB/s  ]   Личеров:  0  |  0 KB/s  ]

* - сиды/пиры с внешних источников

   
 
Автор Сообщение

viktor.r-79 Пол:Муж

03-Ноя-2014 19:11

Убийство Кеннеди / Killing Kennedy

Год выпуска: 2013
Выпущено: США / National Geographic, Scott Free Productions
Жанр: Драма, биография, история
Продолжительность: 01:29:56
Перевод: Профессиональный (одноголосый, закадровый) [Студия АРК ТВ]
Субтитры: Английские (Full + SDH)
Навигация по главам: Есть
Отсутствует около 3-х минут перевода!
Режиссер:
Нельсон МакКормик / Nelson McCormick
В ролях:
Дженифер Гудвин, Мишель Треченберг, Роб Лоу, Уилл Ротхаар, Джек Ноузуорти, Кэйси Семашко, Джейми МакШейн, Ричард Флуд, Антониетта ЛаВеккия, Тейлор Робертс, Наталия Голд, Джосеф Грей, Бонни Джонсон, Демостенс Крисан, Френсис Гуинан, Брайан Хатчинсон, Уильям Л. Томас, Денни Маккарти
О фильме:
Эта драма рассказывает об уникальных, но в то же время взаимосвязанных путях Ли Харви Освальда и Джона Ф. Кеннеди, двух мужчин, чьи жизни были наполнены смыслом и предназначением. Президентские победы Кеннеди и его промахи наряду с увлечением Освальда марксизмом и его последующим отказом от Америки завершится в Дили Плаза 22 ноября 1963 года. Там, где заканчивается путь Кеннеди, путь Освальда продолжается, пока его также трагически не убивают. "Убийство Кеннеди" подробно показывает предысторию, само убийство президента Джона Ф. Кеннеди и его последствия.
Качество: BDRip-AVC
Формат: MKV
Видео кодек: x.264
Аудио кодек: AС3
Видео: 1024x576 (16:9), 23,976 fps, 2576 kbps, 0.182 bit/pixel
Аудио#1: 48 kHz, AC3 Dolby Digital, 2/0 (L,C) ch, 192.00 kbps |RUS|
Аудио#2: 48 kHz, AC3 Dolby Digital, 3/2 (L,C,R,l,r) + LF ch, 448.00 kbps |ENG|
Общее
Уникальный идентификатор : 255136525590618803356758366552923723939 (0xBFF181E8848B4861BF3A6185557E58A3)
Полное имя : D:\торрент\Ubiystvo.Kennedi.2013.DUAL.BDRip.x264.-HELLYWOOD.mkv
Формат : Matroska
Версия формата : Version 4 / Version 2
Размер файла : 2,02 Гбайт
Продолжительность : 1 ч. 29 м.
Общий поток : 3218 Кбит/сек
Название фильма : Killing Kennedy (2013) - HELLYWOOD
Дата кодирования : UTC 2014-11-03 17:54:23
Программа кодирования : mkvmerge v5.9.0 ('On The Loose') built on Dec 15 2012 16:39:58
Библиотека кодирования : libebml v1.3.0 + libmatroska v1.4.0

Видео
Идентификатор : 1
Формат : AVC
Формат/Информация : Advanced Video Codec
Профиль формата : High@L4.1
Параметр CABAC формата : Да
Параметр ReFrames формата : 12 кадров
Идентификатор кодека : V_MPEG4/ISO/AVC
Продолжительность : 1 ч. 29 м.
Битрейт : 2576 Кбит/сек
Ширина : 1024 пикселя
Высота : 576 пикселей
Соотношение сторон : 16:9
Частота кадров : 23,976 кадра/сек
Цветовое пространство : YUV
Субдискретизация насыщенности : 4:2:0
Битовая глубина : 8 бит
Тип развёртки : Прогрессивная
Бит/(Пиксели*Кадры) : 0.182
Размер потока : 1,58 Гбайт (78%)
Заголовок : potroks
Библиотека кодирования : x264 core 130 r2273 b3065e6
Настройки программы : cabac=1 / ref=12 / deblock=1:-3:-3 / analyse=0x3:0x133 / me=umh / subme=11 / psy=1 / psy_rd=0.95:0.04 / mixed_ref=1 / me_range=32 / chroma_me=1 / trellis=2 / 8x8dct=1 / cqm=0 / deadzone=21,11 / fast_pskip=0 / chroma_qp_offset=-3 / threads=6 / lookahead_threads=1 / sliced_threads=0 / nr=0 / decimate=0 / interlaced=0 / bluray_compat=0 / constrained_intra=0 / bframes=13 / b_pyramid=2 / b_adapt=2 / b_bias=0 / direct=3 / weightb=1 / open_gop=0 / weightp=2 / keyint=250 / keyint_min=23 / scenecut=40 / intra_refresh=0 / rc_lookahead=60 / rc=2pass / mbtree=0 / bitrate=2576 / ratetol=1.0 / qcomp=0.70 / qpmin=0 / qpmax=69 / qpstep=4 / cplxblur=20.0 / qblur=0.5 / vbv_maxrate=20000 / vbv_bufsize=25000 / nal_hrd=none / ip_ratio=1.35 / pb_ratio=1.25 / aq=1:0.80
Язык : English
Default : Да
Forced : Нет

Аудио #1
Идентификатор : 2
Формат : AC-3
Формат/Информация : Audio Coding 3
Расширение режима : CM (complete main)
Идентификатор кодека : A_AC3
Продолжительность : 1 ч. 29 м.
Вид битрейта : Постоянный
Битрейт : 192 Кбит/сек
Каналы : 2 канала
Расположение каналов : Front: L R
Частота : 48,0 КГц
Битовая глубина : 16 бит
Метод сжатия : С потерями
Размер потока : 124 Мбайт (6%)
Заголовок : VO | DD 2.0 @ 192 kbps - Студия АРК ТВ
Язык : Russian
Default : Да
Forced : Да

Аудио #2
Идентификатор : 3
Формат : AC-3
Формат/Информация : Audio Coding 3
Расширение режима : CM (complete main)
Идентификатор кодека : A_AC3
Продолжительность : 1 ч. 29 м.
Вид битрейта : Постоянный
Битрейт : 448 Кбит/сек
Каналы : 6 каналов
Расположение каналов : Front: L C R, Side: L R, LFE
Частота : 48,0 КГц
Битовая глубина : 16 бит
Метод сжатия : С потерями
Размер потока : 288 Мбайт (14%)
Заголовок : Original | DD 5.1 @ 448 kbps
Язык : English
Default : Нет
Forced : Нет

Текст #1
Идентификатор : 4
Формат : UTF-8
Идентификатор кодека : S_TEXT/UTF8
Идентификатор кодека/Информация : UTF-8 Plain Text
Заголовок : Full
Язык : English
Default : Нет
Forced : Нет

Текст #2
Идентификатор : 5
Формат : UTF-8
Идентификатор кодека : S_TEXT/UTF8
Идентификатор кодека/Информация : UTF-8 Plain Text
Заголовок : SDH
Язык : English
Default : Нет
Forced : Нет

Меню
00:00:00.000 : en:(01)00:00:00:000
00:01:59.911 : en:(02)00:01:59:911
00:03:45.141 : en:(03)00:03:45:141
00:07:08.052 : en:(04)00:07:08:052
00:10:12.987 : en:(05)00:10:12:987
00:14:23.028 : en:(06)00:14:23:028
00:17:50.944 : en:(07)00:17:50:944
00:22:41.651 : en:(08)00:22:41:651
00:25:55.553 : en:(09)00:25:55:553
00:29:19.340 : en:(10)00:29:19:340
00:31:56.497 : en:(11)00:31:56:497
00:34:29.609 : en:(12)00:34:29:609
00:38:33.894 : en:(13)00:38:33:894
00:42:06.565 : en:(14)00:42:06:565
00:44:47.768 : en:(15)00:44:47:768
00:48:26.737 : en:(16)00:48:26:737
00:51:35.884 : en:(17)00:51:35:884
00:55:59.773 : en:(18)00:55:59:773
00:57:58.308 : en:(19)00:57:58:308
01:01:45.493 : en:(20)01:01:45:493
01:06:01.999 : en:(21)01:06:01:999
01:08:12.546 : en:(22)01:08:12:546
01:11:02.591 : en:(23)01:11:02:591
01:12:49.823 : en:(24)01:12:49:823
01:15:29.858 : en:(25)01:15:29:858
01:18:24.241 : en:(26)01:18:24:241
01:22:42.374 : en:(27)01:22:42:374
01:26:48.828 : en:(28)01:26:48:828
01:29:56.224 : en:(29)01:29:56:224
pic pic pic pic pic pic pic pic
Для увеличения картинки щелкните мышкой по превью

Автор рипа: potroks

Этот торрент недоступен для скачивания без регистрации, однако доступен по публичной magnet-ссылке (источники с публичных трекеров). Перед использованием ссылки прочтите, пожалуйста Пользовательское соглашение, а также как можно дольше оставайтесь на раздаче! Для того, чтобы скачать сам торрент-файл (который видит больше источников), а также для того, чтобы поблагодарить релизера, вам необходимо зарегистрироваться. Если регистрироваться лень - вы можете также попробовать скачать релиз по нашим партнерским ссылкам ниже.

[underverse.su].t45895.torrent
Трекер: Зарегистрирован   [ 03.11.2014 19:11 ]  

Статус: проверено (by Ведьмочка at 04.11.2014 06:16)
Поблагодарили: 2 человека
Тип торрента: публичный - доступные источники с открытых трекеров: 
Размер: 2,02 GB (занимает 0,46 DVDR, для записи нужно 1 болванка DVDR/RW)
 
 
Похожие темы
Форум Тема Автор Торрент Отв. Посл. сооб.
? Зарубежное кино [HDDVDRip / BDRip / WEB-DL / HDTV 1080/720р] Убийство кота / Murder of a Cat (Джиллиан Грин) [2014, триллер, комедия, WEB-DLRip] IlyaSaint
1 | 0

1 | 433

23

12.07.2015 22:03


Яндекс.Метрика powered by Sphinx


В Н И М А Н И Е
Сайт не распространяет и не хранит электронные версии произведений, а лишь бесплатно и без коммерческой выгоды (не требуя взамен платы,
SMS и т.д.) предоставляет доступ к создаваемому пользователями каталогу ссылок на торрент-файлы, которые содержат только списки хеш-сумм.
Убедительная просьба с жалобами обращаться напрямую к пользователю, разместившему торрент файл.

Вверх