Loading...
Error

Дружба и никакого секса? / What If (Майкл Даус / Michael Dowse) [2013, драма, мелодрама, комедия, HDTVRip] Dub (RUS) + (ENG) |Чистый звук|

Статистика раздачи
Размер:  1,46 GB   |    Зарегистрирован:  2 года   |    Скачан:  27 раз

Полного источника не было: 2 месяца 6 дней

Сидов:  0  |  0 KB/s  ]   Личеров:  0  |  0 KB/s  ]

* - сиды/пиры с внешних источников

   
 
Автор Сообщение

viktor.r-79 Пол:Муж

03-Ноя-2014 18:15

Дружба и никакого секса? / What If

Год выпуска: 2013
Жанр: драма, мелодрама, комедия
Выпущено: Ирландия, Канада
Продолжительность: 01:32:46
Перевод: Профессиональный (полное дублирование) |Чистый звук|
Режиссёр:
Майкл Даус / Michael Dowse
В ролях:
Дэниэл Рэдклифф, Зои Казан, Меган Парк, Адам Драйвер, Маккензи Дэвис, Рейф Сполл, Люсиус Хойос, Джемайма Рупер, Томми-Амбер Пири, Меган Хефферн

Описание:
Двадцатилетние Уоллес и Шантри познакомились на вечеринке и между ними сразу пробежала искра. Молодые люди начинают общаться и обнаруживают, что они — родственные души, у которых очень много общего. Они ежедневно переписываются через электронную почту и смс и регулярно ходят вместе ужинать. В общем, всё идёт хорошо и тут вдруг выясняется одна маленькая деталь: у нее уже есть парень…
Качество: HDTVRip
Формат: AVI
Видео кодек: XviD
Аудио кодек: AC3
Видео: 720x304 (2.35:1), 25.000 fps, XviD ~1860 kbps avg
Аудио 1: 48 kHz, AC3 Dolby Digital, 2/0 (L,R) ch, ~192.00 kbps avg |RUS|
Аудио 2: 48 kHz, AC3 Dolby Digital, 2/0 (L,R) ch, ~192.00 kbps avg |ENG|
Общее
Полное имя : D:\торрент\Druzhb4.i.N1kak0g0.5ek5a.2014.Dl.HDTVRip_.avi
Формат : AVI
Формат/Информация : Audio Video Interleave
Размер файла : 1,46 Гбайт
Продолжительность : 1 ч. 32 м.
Общий поток : 2259 Кбит/сек
Название фильма : What.if.2014.D.HDRip.ELEKTRI4KA
Режиссёр : ELEKTRI4KA
Программа кодирования : VirtualDubMod 1.5.10.2 (build 2540/release)
Формат оригинала/Имя : Movie
Правообладатель : uniongang.tv
Примечание : R.G.ELEKTRI4KA

Видео
Идентификатор : 0
Формат : MPEG-4 Visual
Профиль формата : Advanced Simple@L5
Параметр BVOP формата : 2
Параметр QPel формата : Нет
Параметр GMC формата : Без точки перехода
Параметр матрицы формата : Выборочная
Идентификатор кодека : XVID
Идентификатор кодека/Подсказка : XviD
Продолжительность : 1 ч. 32 м.
Битрейт : 1860 Кбит/сек
Ширина : 720 пикселей
Высота : 304 пикселя
Соотношение сторон : 2,35:1
Частота кадров : 25,000 кадров/сек
Цветовое пространство : YUV
Субдискретизация насыщенности : 4:2:0
Битовая глубина : 8 бит
Тип развёртки : Прогрессивная
Метод сжатия : С потерями
Бит/(Пиксели*Кадры) : 0.340
Размер потока : 1,21 Гбайт (82%)
Библиотека кодирования : XviD 1.2.1 (UTC 2008-12-04)

Аудио #1
Идентификатор : 1
Формат : AC-3
Формат/Информация : Audio Coding 3
Расширение режима : CM (complete main)
Идентификатор кодека : 2000
Продолжительность : 1 ч. 32 м.
Вид битрейта : Постоянный
Битрейт : 192 Кбит/сек
Каналы : 2 канала
Расположение каналов : Front: L R
Частота : 48,0 КГц
Битовая глубина : 16 бит
Метод сжатия : С потерями
Размер потока : 127 Мбайт (9%)
Выравнивание : Разделение по промежуткам
Продолжительность промежутка : 40 мс. (1,00 видеокадр)
Время предзагрузки промежутка : 500 мс.

Аудио #2
Идентификатор : 2
Формат : AC-3
Формат/Информация : Audio Coding 3
Расширение режима : CM (complete main)
Идентификатор кодека : 2000
Продолжительность : 1 ч. 32 м.
Вид битрейта : Постоянный
Битрейт : 192 Кбит/сек
Каналы : 2 канала
Расположение каналов : Front: L R
Частота : 48,0 КГц
Битовая глубина : 16 бит
Метод сжатия : С потерями
Размер потока : 127 Мбайт (9%)
Выравнивание : Разделение по промежуткам
Продолжительность промежутка : 40 мс. (1,00 видеокадр)
Время предзагрузки промежутка : 500 мс.
pic pic pic pic
Для увеличения картинки щелкните мышкой по превью

Этот торрент недоступен для скачивания без регистрации, однако доступен по публичной magnet-ссылке (источники с публичных трекеров). Перед использованием ссылки прочтите, пожалуйста Пользовательское соглашение, а также как можно дольше оставайтесь на раздаче! Для того, чтобы скачать сам торрент-файл (который видит больше источников), а также для того, чтобы поблагодарить релизера, вам необходимо зарегистрироваться. Если регистрироваться лень - вы можете также попробовать скачать релиз по нашим партнерским ссылкам ниже.

[underverse.su].t45893.torrent
Трекер: Зарегистрирован   [ 03.11.2014 18:15 ]  

Статус: T временная (by Ведьмочка at 04.11.2014 06:17)
Поблагодарили: 1 человек
Тип торрента: публичный - доступные источники с открытых трекеров: 
Размер: 1,46 GB (занимает 0,33 DVDR, для записи нужно 1 болванка DVDR/RW)
 
 
Похожие темы
Форум Тема Автор Торрент Отв. Посл. сооб.
T Зарубежное кино [DVDRip, Low-Res HDRip, и т.д.] Дружба и никакого секса? / What If (Майкл Даус / Michael Dowse) [2013 г., драма, мелодрама, комедия, HDRip] Dub (iTunes) 90ytr90
82 | 0

0 | 216

6

24.11.2014 10:43

T Зарубежное кино [HDDVDRip / BDRip / WEB-DL / HDTV 1080/720р] Дружба и никакого секса? / What If (Майкл Даус) [2013 г., Мелодрама, Комедия, BDRip 720p] Dub (RUS, iTunes Russia) + Original (ENG) + Subs (ENG) Ведьмочка
7 | 0

0 | 382

9

17.11.2014 10:19


Яндекс.Метрика powered by Sphinx


В Н И М А Н И Е
Сайт не распространяет и не хранит электронные версии произведений, а лишь бесплатно и без коммерческой выгоды (не требуя взамен платы,
SMS и т.д.) предоставляет доступ к создаваемому пользователями каталогу ссылок на торрент-файлы, которые содержат только списки хеш-сумм.
Убедительная просьба с жалобами обращаться напрямую к пользователю, разместившему торрент файл.

Вверх