Loading...
Error

Безумная свадьба / Qu'est-ce Qu'on A Fait Au Bon Dieu? (Филипп де Шоврон) [2014 г., Комедия, HDRip] Dub (RUS, Лицензия)

Статистика раздачи
Размер:  1,46 GB   |    Зарегистрирован:  2 года 1 месяц   |    Скачан:  31 раз

Полного источника не было: 8 часов

Сидов:  0  |  0 KB/s  ]   Личеров:  0  |  0 KB/s  ]

* - сиды/пиры с внешних источников

   
 
Автор Сообщение

Ведьмочка Пол:Жен

03-Ноя-2014 16:27

Безумная свадьба / Qu'est-ce Qu'on A Fait Au Bon Dieu?


Страна: Франция
Год выпуска: 2014
Жанр: Комедия
Продолжительность: 01:36:57
Режиссёр: Филипп де Шоврон
В ролях: Кристиан Клавье, Шанталь Лоби, Эри Абиттан, Меди Садун, Фредерик Шо, Нум Дьявара, Фредерик Бель, Джулия Пьятон, Эмили Кан, Элоди Фонтан
Сюжет фильма:
Главные герои фильма, мсье Верней и его жена — добропорядочная буржуазная французская супружеская пара, родители четырех красавиц-дочерей. Как известно, основная проблема всех подобных семей — выдать дочек замуж, чтобы не засиделись в девках. У семейства Верней такой проблемы нет. Три дочери уже нашли свое счастье, вот только мужья, по мнению родителей, подкачали: один — китаец, другой — араб, третий — еврей… Пришло время, и четвертая дочь сообщает радостную весть: она тоже выходит замуж! И ее жених… чернокожий.

Озвучивание:
  • Дублированный, Русский [Лицензия]

Качество видео: HDRip
Формат: AVI

Видео: XviD, 720x384 (1.85:1), 24.000 fps, ~1761 Кбит/сек
Аудио: AC-3, 384 Кбит/сек, 6 Каналов, 48.0 КГц



General
Complete name : \Bezumnaya.Svadjba.2014.D.HDRip.avi
Format : AVI
Format/Info : Audio Video Interleave
File size : 1.46 GiB
Duration : 1h 36mn
Overall bit rate : 2 155 Kbps
Writing application : VirtualDubMod 1.5.10.2 (build 2540/release)
Writing library : VirtualDubMod build 2540/release

Video
ID : 0
Format : MPEG-4 Visual
Format profile : Advanced Simple@L5
Format settings, BVOP : 2
Format settings, QPel : No
Format settings, GMC : No warppoints
Format settings, Matrix : Default (MPEG)
Codec ID : XVID
Codec ID/Hint : XviD
Duration : 1h 36mn
Bit rate : 1 761 Kbps
Width : 720 pixels
Height : 384 pixels
Display aspect ratio : 1.85:1
Frame rate : 24.000 fps
Color space : YUV
Chroma subsampling : 4:2:0
Bit depth : 8 bits
Scan type : Progressive
Compression mode : Lossy
Bits/(Pixel*Frame) : 0.265
Stream size : 1.19 GiB (82%)
Writing library : XviD 1.2.1 (UTC 2008-12-04)

Audio
ID : 1
Format : AC-3
Format/Info : Audio Coding 3
Mode extension : CM (complete main)
Format settings, Endianness : Big
Codec ID : 2000
Duration : 1h 36mn
Bit rate mode : Constant
Bit rate : 384 Kbps
Channel(s) : 6 channels
Channel positions : Front: L C R, Side: L R, LFE
Sampling rate : 48.0 KHz
Bit depth : 16 bits
Compression mode : Lossy
Stream size : 266 MiB (18%)
Alignment : Split accross interleaves
Interleave, duration : 42 ms (1.00 video frame)
Interleave, preload duration : 500 ms


picpicpic
Для увеличения картинки щелкните мышкой по превью

Этот торрент недоступен для скачивания без регистрации, однако доступен по публичной magnet-ссылке (источники с публичных трекеров). Перед использованием ссылки прочтите, пожалуйста Пользовательское соглашение, а также как можно дольше оставайтесь на раздаче! Для того, чтобы скачать сам торрент-файл (который видит больше источников), а также для того, чтобы поблагодарить релизера, вам необходимо зарегистрироваться. Если регистрироваться лень - вы можете также попробовать скачать релиз по нашим партнерским ссылкам ниже.

[underverse.su].t45874.torrent
Трекер: Зарегистрирован   [ 03.11.2014 16:27 ]  

Статус: проверено (by Ведьмочка at 03.11.2014 16:35)
Поблагодарили: 2 человека
Тип торрента: публичный - доступные источники с открытых трекеров: 
Размер: 1,46 GB (занимает 0,33 DVDR, для записи нужно 1 болванка DVDR/RW)
 
 
Похожие темы
Форум Тема Автор Торрент Отв. Посл. сооб.
Зарубежное кино [DVDRip, Low-Res HDRip, и т.д.] Безумная свадьба / Qu'est-ce qu'on a fait au Bon Dieu? (Филипп де Шоврон / Philippe de Chauveron) [2014 г., комедия, BDRip-AVC] Dub + Original (Fre) + Sub (Rus, Eng) 90ytr90
14 | 0

0 | 313

3

22.10.2016 16:57

Зарубежное кино [DVDRip, Low-Res HDRip, и т.д.] Безумная свадьба / Qu'est-ce qu'on a fait au Bon Dieu? (Филипп де Шоврон / Philippe de Chauveron) [2014 г., комедия, BDRip-AVC] Dub + Sub (Rus) 90ytr90
37 | 1

0 | 348

4

22.10.2016 17:02

Зарубежное кино [DVDRip, Low-Res HDRip, и т.д.] Безумная свадьба / Qu'est-ce qu'on a fait au Bon Dieu? (Филипп де Шоврон / Philippe de Chauveron) [2014 г., комедия, HDRip] Dub 90ytr90
4 | 0

0 | 247

6

27.11.2014 12:44

Зарубежное кино [HDDVDRip / BDRip / WEB-DL / HDTV 1080/720р] Безумная свадьба / Qu'est-ce qu'on a fait au Bon Dieu? (Филипп де Шоврон / Philippe de Chauveron) [2014 г., комедия, BDRip 720p] [Rus Transfer] Dub + Original (Fre) + Sub (Rus) 90ytr90
3 | 1

0 | 297

1

22.10.2016 16:36

Зарубежное кино [HDDVDRip / BDRip / WEB-DL / HDTV 1080/720р] Безумная свадьба / Qu'est-ce Qu'on A Fait Au Bon Dieu? (Филипп де Шоврон) [2014 г., Комедия, BDRip 720p] Dub (RUS, Лицензия) + Original (FRA) Ведьмочка
1 | 0

0 | 849

17

03.11.2014 17:00

# Зарубежное кино [HDDVDRip / BDRip / WEB-DL / HDTV 1080/720р] Безумная свадьба / Qu'est-ce qu'on a fait au Bon Dieu? (Филипп де Шоврон / Philippe de Chauveron) [2014 г., комедия, BDRip 1080p] Dub + Original (Fre) 90ytr90
7 | 0

0 | 256

6

27.11.2014 12:38



Последний раз редактировалось: Ведьмочка (14.11.2014 03:07), всего редактировалось 2 раз(а)

nemos Пол:Муж

03-Ноя-2014 16:37



Яндекс.Метрика powered by Sphinx


В Н И М А Н И Е
Сайт не распространяет и не хранит электронные версии произведений, а лишь бесплатно и без коммерческой выгоды (не требуя взамен платы,
SMS и т.д.) предоставляет доступ к создаваемому пользователями каталогу ссылок на торрент-файлы, которые содержат только списки хеш-сумм.
Убедительная просьба с жалобами обращаться напрямую к пользователю, разместившему торрент файл.

Вверх