Loading...
Error

7500 / 7500 (Такаси Симидзу) [2014 г., Ужасы, Триллер, Детектив, HDRip] VO (RUS, ХиХиДок) + Original (ENG)

Статистика раздачи
Размер:  1,45 GB   |    Зарегистрирован:  2 года 1 месяц   |    Скачан:  32 раза

Полного источника не было: 1 месяц 22 дня

Сидов:  0  |  0 KB/s  ]   Личеров:  0  |  0 KB/s  ]

* - сиды/пиры с внешних источников

   
 
Автор Сообщение

Ведьмочка Пол:Жен

03-Ноя-2014 08:59

7500 / 7500
«At 30,000 feet. There's Nowhere to Run»


Страна: Япония , США
Год выпуска: 2014
Жанр: Ужасы, Триллер, Детектив
Продолжительность: 01:19:49
Режиссёр: Такаси Симидзу
В ролях: Райан Квантен, Эми Смарт, Лесли Бибб, Джейми Чунг, Скаут Тэйлор-Комптон, Никки Уилан, Джерри Феррара, Кристиан Серратос, Алекс Фрост, Рик Келли
Сюжет фильма:
Действующие лица фильма — группа пассажиров рейса Vista Pacific 7500, совершающего перелет через Тихий океан. Мерное и тоскливое течение времени во время полета внезапно нарушается, и герои сталкиваются с некой сверхъестественной силой, вносящей не самое приятное разнообразие в замкнутом пространстве.

Озвучивание:
  • Любительский, Одноголосный, Русский [ХиХиДок]
  • Оригинал, Английский


Качество видео: HDRip
Формат: AVI

Видео: XviD, 720x384 (1.85:1), 23.976 fps, ~2173 Кбит/сек
Аудио #1: AC-3, 192 Кбит/сек, 2 Канала, 44.1 КГц
Аудио #2: AC-3, 224 Кбит/сек, 2 Канала, 48.0 КГц



General
Complete name : \7500.2014.L1.HDRip.avi
Format : AVI
Format/Info : Audio Video Interleave
File size : 1.45 GiB
Duration : 1h 19mn
Overall bit rate : 2 604 Kbps
Writing application : VirtualDubMod 1.5.10.3 | www.virtualdub-fr.org || (build 2550/release)
Writing library : VirtualDubMod build 2550/release

Video
ID : 0
Format : MPEG-4 Visual
Format profile : Advanced Simple@L5
Format settings, BVOP : 2
Format settings, QPel : No
Format settings, GMC : No warppoints
Format settings, Matrix : Default (H.263)
Codec ID : XVID
Codec ID/Hint : XviD
Duration : 1h 19mn
Bit rate : 2 173 Kbps
Width : 720 pixels
Height : 384 pixels
Display aspect ratio : 1.85:1
Frame rate : 23.976 fps
Color space : YUV
Chroma subsampling : 4:2:0
Bit depth : 8 bits
Scan type : Progressive
Compression mode : Lossy
Bits/(Pixel*Frame) : 0.328
Stream size : 1.21 GiB (83%)
Writing library : XviD 64

Audio #1
ID : 1
Format : AC-3
Format/Info : Audio Coding 3
Mode extension : CM (complete main)
Format settings, Endianness : Big
Codec ID : 2000
Duration : 1h 19mn
Bit rate mode : Constant
Bit rate : 192 Kbps
Channel(s) : 2 channels
Channel positions : Front: L R
Sampling rate : 44.1 KHz
Bit depth : 16 bits
Compression mode : Lossy
Stream size : 110 MiB (7%)
Alignment : Split accross interleaves
Interleave, duration : 42 ms (1.00 video frame)
Interleave, preload duration : 500 ms

Audio #2
ID : 2
Format : AC-3
Format/Info : Audio Coding 3
Mode extension : CM (complete main)
Format settings, Endianness : Big
Codec ID : 2000
Duration : 1h 19mn
Bit rate mode : Constant
Bit rate : 224 Kbps
Channel(s) : 2 channels
Channel positions : Front: L R
Sampling rate : 48.0 KHz
Bit depth : 16 bits
Compression mode : Lossy
Delay relative to video : 22ms
Stream size : 128 MiB (9%)
Alignment : Split accross interleaves
Interleave, duration : 42 ms (1.00 video frame)
Interleave, preload duration : 500 ms


picpicpic
Для увеличения картинки щелкните мышкой по превью

Этот торрент недоступен для скачивания без регистрации, однако доступен по публичной magnet-ссылке (источники с публичных трекеров). Перед использованием ссылки прочтите, пожалуйста Пользовательское соглашение, а также как можно дольше оставайтесь на раздаче! Для того, чтобы скачать сам торрент-файл (который видит больше источников), а также для того, чтобы поблагодарить релизера, вам необходимо зарегистрироваться. Если регистрироваться лень - вы можете также попробовать скачать релиз по нашим партнерским ссылкам ниже.

[underverse.su].t45852.torrent
Трекер: Зарегистрирован   [ 03.11.2014 08:59 ]  

Статус: проверено (by Ведьмочка at 03.11.2014 09:27)
Поблагодарили: 2 человека
Тип торрента: публичный - доступные источники с открытых трекеров: 
Размер: 1,45 GB (занимает 1/3 DVDR, для записи нужно 1 болванка DVDR/RW)
 
 
Похожие темы
Форум Тема Автор Торрент Отв. Посл. сооб.
T Зарубежное кино [DVDRip, Low-Res HDRip, и т.д.] 7500 / 7500 (Такаси Симидзу / Takashi Shimizu) [2014 г., ужасы, фантастика, триллер, детектив, HDRip] MVO (официальный звук) + Original (Eng) 90ytr90
0 | 0

0 | 600

10

10.01.2016 16:37

Зарубежное кино [HDDVDRip / BDRip / WEB-DL / HDTV 1080/720р] 7500 / 7500 (Такаси Симидзу) [2014 г., Ужасы, Триллер, Детектив, BDRip 720p] VO (RUS, ХиХиДок) + Original (ENG) + Subs (GER) Ведьмочка
1 | 0

0 | 618

11

03.11.2014 08:34


Яндекс.Метрика powered by Sphinx


В Н И М А Н И Е
Сайт не распространяет и не хранит электронные версии произведений, а лишь бесплатно и без коммерческой выгоды (не требуя взамен платы,
SMS и т.д.) предоставляет доступ к создаваемому пользователями каталогу ссылок на торрент-файлы, которые содержат только списки хеш-сумм.
Убедительная просьба с жалобами обращаться напрямую к пользователю, разместившему торрент файл.

Вверх