Loading...
Error

Затвор / Shutter (Баньенг Писензенекун, Паркпум Вонгпум) [2004 г., Ужасы, Триллер, Детектив, WEB-DLRip] AVO (RUS, С. Кузнецов)

Статистика раздачи
Размер:  1,39 GB   |    Зарегистрирован:  2 года 1 месяц   |    Скачан:  11 раз

Полного источника не было: 10 месяцев

Сидов:  0  |  0 KB/s  ]   Личеров:  0  |  0 KB/s  ]

* - сиды/пиры с внешних источников

   
 
Автор Сообщение

Ведьмочка Пол:Жен

01-Ноя-2014 19:36

Затвор / Shutter
«The most terrifying images are the ones that are real»


Страна: Таиланд
Год выпуска: 2004
Жанр: Ужасы, Триллер, Детектив
Продолжительность: 01:36:19
Режиссёр: Баньенг Писензенекун, Паркпум Вонгпум
В ролях: Ананда Эверингем, Наттавирануч Тонгми, Ачита Сикамана, Унноп Чанпайбул, Титикарн Тонгпрасеартх, Сивагорн Муттамара, Чаччая Чалемпхол, Качормсак Нарыпатр, Апичарт Чусакуль, Бинн Китчачонпонг
Сюжет фильма:
Тан, молодой фотограф, сбивает девушку и скрывается с места аварии вместе со своей подругой Джен. После несчастного случая, на снимках, которые он делает, появляется странная тень.

Сначала Тан решает, что это просто брак, но тень появляется снова и снова, а друзья Тана начинают умирать.


Озвучивание:
  • Авторский, Одноголосный, Русский [С. Кузнецов]

Качество видео: WEB-DLRip
Формат: AVI

Видео: XviD, 704x400 (16:9), 24.000 fps, ~1872 Кбит/сек
Аудио: AC-3, 192 Кбит/сек, 2 Канала, 48.0 КГц

Rip by:



General
Complete name : \Shutter.2004.WEB-DLRip.1400MB. rip by [Assassin's Creed].avi
Format : AVI
Format/Info : Audio Video Interleave
File size : 1.39 GiB
Duration : 1h 36mn
Overall bit rate : 2 073 Kbps
Writing application : VirtualDubMod 1.5.10.3 | www.virtualdub-fr.org || (build 2550/release)
Writing library : VirtualDubMod build 2550/release

Video
ID : 0
Format : MPEG-4 Visual
Format profile : Advanced Simple@L5
Format settings, BVOP : 1
Format settings, QPel : No
Format settings, GMC : No warppoints
Format settings, Matrix : Default (MPEG)
Codec ID : XVID
Codec ID/Hint : XviD
Duration : 1h 36mn
Bit rate : 1 872 Kbps
Width : 704 pixels
Height : 400 pixels
Display aspect ratio : 16:9
Frame rate : 24.000 fps
Color space : YUV
Chroma subsampling : 4:2:0
Bit depth : 8 bits
Scan type : Progressive
Compression mode : Lossy
Bits/(Pixel*Frame) : 0.277
Stream size : 1.26 GiB (90%)
Writing library : XviD 1.2.1 (UTC 2008-12-04)

Audio
ID : 1
Format : AC-3
Format/Info : Audio Coding 3
Mode extension : CM (complete main)
Format settings, Endianness : Big
Codec ID : 2000
Duration : 1h 36mn
Bit rate mode : Constant
Bit rate : 192 Kbps
Channel(s) : 2 channels
Channel positions : Front: L R
Sampling rate : 48.0 KHz
Bit depth : 16 bits
Compression mode : Lossy
Stream size : 132 MiB (9%)
Alignment : Split accross interleaves
Interleave, duration : 42 ms (1.00 video frame)
Interleave, preload duration : 500 ms


picpicpic
Для увеличения картинки щелкните мышкой по превью

Этот торрент недоступен для скачивания без регистрации, однако доступен по публичной magnet-ссылке (источники с публичных трекеров). Перед использованием ссылки прочтите, пожалуйста Пользовательское соглашение, а также как можно дольше оставайтесь на раздаче! Для того, чтобы скачать сам торрент-файл (который видит больше источников), а также для того, чтобы поблагодарить релизера, вам необходимо зарегистрироваться. Если регистрироваться лень - вы можете также попробовать скачать релиз по нашим партнерским ссылкам ниже.

[underverse.su].t45825.torrent
Трекер: Зарегистрирован   [ 01.11.2014 19:36 ]  

Статус: проверено (by Ведьмочка at 01.11.2014 19:37)
Поблагодарили: 1 человек
Тип торрента: публичный - доступные источники с открытых трекеров: 
Размер: 1,39 GB (занимает 0,32 DVDR, для записи нужно 1 болванка DVDR/RW)
 
 
Похожие темы
Форум Тема Автор Торрент Отв. Посл. сооб.
Архив Затвор / Shutter (Баньенг Писензенекун, Parkpoom Wongpoom) [2004 г., ужасы, триллер, фэнтези, детектив, DVDRip] Joey
19 | 3

1 | 938

3

12.11.2010 23:48


Яндекс.Метрика powered by Sphinx


В Н И М А Н И Е
Сайт не распространяет и не хранит электронные версии произведений, а лишь бесплатно и без коммерческой выгоды (не требуя взамен платы,
SMS и т.д.) предоставляет доступ к создаваемому пользователями каталогу ссылок на торрент-файлы, которые содержат только списки хеш-сумм.
Убедительная просьба с жалобами обращаться напрямую к пользователю, разместившему торрент файл.

Вверх