Loading...
Error

Бобры-зомби / Zombeavers (Джордан Рубин) [2014 г., Ужасы, Боевик, Комедия, HDRip] VO (RUS, den904)

Статистика раздачи
Размер:  1,37 GB   |    Зарегистрирован:  2 года 1 месяц   |    Скачан:  25 раз

Полного источника не было: 6 дней

Сидов:  0  |  0 KB/s  ]   Личеров:  0  |  0 KB/s  ]

* - сиды/пиры с внешних источников

   
 
Автор Сообщение

Ведьмочка Пол:Жен

01-Ноя-2014 17:13

Бобры-зомби / Zombeavers


Страна: США
Год выпуска: 2014
Жанр: Ужасы, Боевик, Комедия
Продолжительность: 01:17:33
Режиссёр: Джордан Рубин
В ролях: Билли Барр, Кортни Палм, Рэйчел Мелвин, Хатч Дано, Джейк Вири, Рекс Линн, Брент Бриско, Роберт Р. Шафер, Питер Гилрой, Лекси Аткинс
Сюжет фильма:
Выходные, запланированные молодежью для развлечений на берегу озера и в расположенном на брегу уютном домике, оборачиваются битвой с нападающими на них бобрами-зомби.

Озвучивание:
  • Любительский, Одноголосный, Русский [den904]

Качество видео: HDRip
Формат: AVI

Видео: XviD, 720x400 (16:9), 23.976 fps, ~2067 Кбит/сек
Аудио: AC-3, 448 Кбит/сек, 6 Каналов, 48.0 КГц



General
Complete name : \Zombeavers.2014.L1.HDRip.1400MB.avi
Format : AVI
Format/Info : Audio Video Interleave
File size : 1.37 GiB
Duration : 1h 17mn
Overall bit rate : 2 524 Kbps
Writing application : VirtualDubMod 1.5.10.3 | www.virtualdub-fr.org || (build 2550/release)
Writing library : VirtualDubMod build 2550/release

Video
ID : 0
Format : MPEG-4 Visual
Format profile : Advanced Simple@L5
Format settings, BVOP : 1
Format settings, QPel : No
Format settings, GMC : No warppoints
Format settings, Matrix : Custom
Codec ID : XVID
Codec ID/Hint : XviD
Duration : 1h 17mn
Bit rate : 2 067 Kbps
Width : 720 pixels
Height : 400 pixels
Display aspect ratio : 16:9
Frame rate : 23.976 fps
Color space : YUV
Chroma subsampling : 4:2:0
Bit depth : 8 bits
Scan type : Progressive
Compression mode : Lossy
Bits/(Pixel*Frame) : 0.299
Stream size : 1.12 GiB (82%)
Writing library : XviD 73

Audio
ID : 1
Format : AC-3
Format/Info : Audio Coding 3
Mode extension : CM (complete main)
Format settings, Endianness : Big
Codec ID : 2000
Duration : 1h 17mn
Bit rate mode : Constant
Bit rate : 448 Kbps
Channel(s) : 6 channels
Channel positions : Front: L C R, Side: L R, LFE
Sampling rate : 48.0 KHz
Bit depth : 16 bits
Compression mode : Lossy
Stream size : 249 MiB (18%)
Alignment : Split accross interleaves
Interleave, duration : 42 ms (1.00 video frame)
Interleave, preload duration : 500 ms


picpicpic
Для увеличения картинки щелкните мышкой по превью

Этот торрент недоступен для скачивания без регистрации, однако доступен по публичной magnet-ссылке (источники с публичных трекеров). Перед использованием ссылки прочтите, пожалуйста Пользовательское соглашение, а также как можно дольше оставайтесь на раздаче! Для того, чтобы скачать сам торрент-файл (который видит больше источников), а также для того, чтобы поблагодарить релизера, вам необходимо зарегистрироваться. Если регистрироваться лень - вы можете также попробовать скачать релиз по нашим партнерским ссылкам ниже.

[underverse.su].t45822.torrent
Трекер: Зарегистрирован   [ 01.11.2014 17:13 ]  

Статус: проверено (by Ведьмочка at 01.11.2014 17:41)
Поблагодарили: 1 человек
Тип торрента: публичный - доступные источники с открытых трекеров: 
Размер: 1,37 GB (занимает 0,31 DVDR, для записи нужно 1 болванка DVDR/RW)
 
 
Похожие темы
Форум Тема Автор Торрент Отв. Посл. сооб.
Зарубежное кино [DVDRip, Low-Res HDRip, и т.д.] Бобры-зомби / Zombeavers (Джордан Рубин) [2014 г., ужасы, боевик, комедия, HDRip] MVO [Официальный звук] + Original Паукан
3 | 0

0 | 987

27

10.04.2015 10:30

Зарубежное кино [DVDRip, Low-Res HDRip, и т.д.] Бобры-зомби / Zombeavers (Джордан Рубин / Jordan Rubin) [2014 г., ужасы, боевик, комедия, BDRip 720p] MVO + Original + Sub (Eng) Паукан
21 | 1

0 | 533

0

10.04.2015 10:40

Зарубежное кино [HDDVDRip / BDRip / WEB-DL / HDTV 1080/720р] Бобры-зомби / Zombeavers (Джордан Рубин) [2014 г., Ужасы, Боевик, Комедия, BDRip 720p] VO (RUS, den904) + Original (ENG) + Subs (RUS, ENG) Ведьмочка
6 | 1

0 | 703

17

01.11.2014 16:19


Яндекс.Метрика powered by Sphinx


В Н И М А Н И Е
Сайт не распространяет и не хранит электронные версии произведений, а лишь бесплатно и без коммерческой выгоды (не требуя взамен платы,
SMS и т.д.) предоставляет доступ к создаваемому пользователями каталогу ссылок на торрент-файлы, которые содержат только списки хеш-сумм.
Убедительная просьба с жалобами обращаться напрямую к пользователю, разместившему торрент файл.

Вверх