Loading...
Error

Плохие слова / Bad Words (Джейсон Бейтман) [2013 г., Комедия, HDRip] Dub (RUS, Лицензия)

Статистика раздачи
Размер:  1,47 GB   |    Зарегистрирован:  2 года 1 месяц   |    Скачан:  21 раз
Сидов:  1  |  0 KB/s  ]   Личеров:  0  |  0 KB/s  ]

* - сиды/пиры с внешних источников

   
 
Автор Сообщение

Ведьмочка Пол:Жен

01-Ноя-2014 16:14

Плохие слова / Bad Words
«The end justifies the mean»


Страна: США
Год выпуска: 2013
Жанр: Комедия
Продолжительность: 01:28:55
Режиссёр: Джейсон Бейтман
В ролях: Джейсон Бейтмен, Эллисон Джэнни, Кэтрин Хан, Рэйчел Харрис, Бен Фэлкоун, Джудит Хоаг, Филип Бэйкер Холл, Бет Грант, Патриция Белчер, Роэн Чанд
Сюжет фильма:
Фильм рассказывает о мужчине, который хочет попасть на соревнование по правописанию и попадает на него, найдя в регламенте конкурса лазейку…

Озвучивание:
  • Дублированный, Русский [Лицензия]

Качество видео: HDRip
Формат: AVI

Видео: XviD, 720x304 (2.35:1), 23.976 fps, ~1963 Кбит/сек
Аудио: AC-3, 384 Кбит/сек, 6 Каналов, 48.0 КГц

Rip by:



General
Complete name : \Bad Words_2013_HDRip_r5_[scarabey.org].avi
Format : AVI
Format/Info : Audio Video Interleave
File size : 1.47 GiB
Duration : 1h 29mn
Overall bit rate : 2 356 Kbps
Writing application : VirtualDubMod 1.5.10.2 (build 2540/release)
Writing library : VirtualDubMod build 2540/release

Video
ID : 0
Format : MPEG-4 Visual
Format profile : Advanced Simple@L5
Format settings, BVOP : 1
Format settings, QPel : No
Format settings, GMC : No warppoints
Format settings, Matrix : Custom
Codec ID : XVID
Codec ID/Hint : XviD
Duration : 1h 29mn
Bit rate : 1 963 Kbps
Width : 720 pixels
Height : 304 pixels
Display aspect ratio : 2.35:1
Frame rate : 23.976 fps
Color space : YUV
Chroma subsampling : 4:2:0
Bit depth : 8 bits
Scan type : Progressive
Compression mode : Lossy
Bits/(Pixel*Frame) : 0.374
Stream size : 1.22 GiB (83%)
Writing library : XviD 73

Audio
ID : 1
Format : AC-3
Format/Info : Audio Coding 3
Mode extension : CM (complete main)
Format settings, Endianness : Big
Codec ID : 2000
Duration : 1h 28mn
Bit rate mode : Constant
Bit rate : 384 Kbps
Channel(s) : 6 channels
Channel positions : Front: L C R, Side: L R, LFE
Sampling rate : 48.0 KHz
Bit depth : 16 bits
Compression mode : Lossy
Stream size : 244 MiB (16%)
Alignment : Split accross interleaves
Interleave, duration : 42 ms (1.00 video frame)
Interleave, preload duration : 500 ms


picpicpic
Для увеличения картинки щелкните мышкой по превью

Этот торрент недоступен для скачивания без регистрации, однако доступен по публичной magnet-ссылке (источники с публичных трекеров). Перед использованием ссылки прочтите, пожалуйста Пользовательское соглашение, а также как можно дольше оставайтесь на раздаче! Для того, чтобы скачать сам торрент-файл (который видит больше источников), а также для того, чтобы поблагодарить релизера, вам необходимо зарегистрироваться. Если регистрироваться лень - вы можете также попробовать скачать релиз по нашим партнерским ссылкам ниже.

[underverse.su].t45820.torrent
Трекер: Зарегистрирован   [ 01.11.2014 16:14 ]  

Статус: проверено (by Ведьмочка at 01.11.2014 16:14)
Поблагодарили: 1 человек
Тип торрента: публичный - доступные источники с открытых трекеров: 
Размер: 1,47 GB (занимает 0,33 DVDR, для записи нужно 1 болванка DVDR/RW)
 
 
Похожие темы
Форум Тема Автор Торрент Отв. Посл. сооб.
Зарубежное кино [DVDRip, Low-Res HDRip, и т.д.] Плохие слова / Bad Words (Джейсон Бэйтмен) [2013 г., комедия, HDRip] VO [Lord32x] Паукан
9 | 0

0 | 582

13

18.08.2014 10:57

T Зарубежное кино [DVDRip, Low-Res HDRip, и т.д.] Плохие слова / Bad Words (Джейсон Бейтман) [2013 г., Комедия, BDRip] Dub (RUS, iTunes Russia) + Original (ENG) Ведьмочка
4 | 0

0 | 589

5

06.10.2014 19:28

Зарубежное кино [DVDRip, Low-Res HDRip, и т.д.] Плохие слова / Bad Words (Джейсон Бейтман) [2013 г., Комедия, BDRip-AVC] Dub (RUS, Лицензия) + Original (ENG) + Subs (RUS, ENG) Ведьмочка
4 | 0

0 | 581

1

01.11.2014 16:03

# Зарубежное кино [DVDRip, Low-Res HDRip, и т.д.] Плохие слова / Bad Words (Джейсон Бэйтмен / Jason Bateman) [2013 г., комедия, BDRip-AVC] Dub + Original (Eng) + Sub (Rus, Eng) 90ytr90
4 | 0

0 | 252

1

26.11.2014 20:22

Зарубежное кино [DVDRip, Low-Res HDRip, и т.д.] Плохие слова / Bad Words (Джейсон Бэйтмен / Jason Bateman) [2013 г., комедия, BDRip-AVC] Dub + Original (Eng) + Sub (Rus, Eng) 90ytr90
7 | 0

0 | 254

0

26.11.2014 20:30

Зарубежное кино [DVDRip, Low-Res HDRip, и т.д.] Плохие слова / Bad Words (Джейсон Бэйтмен / Jason Bateman) [2013 г., комедия, HDRip] Dub 90ytr90
5 | 0

0 | 233

4

26.11.2014 20:47

T Зарубежное кино [HDDVDRip / BDRip / WEB-DL / HDTV 1080/720р] Плохие слова / Bad Words (Джейсон Бейтман) [2013 г., Комедия, BDRip 1080p] Dub (RUS, PlayFamily) + VO (RUS, Lord32x) + Original (ENG) + Comments (ENG) + Subs (RUS) Чистый звук Ведьмочка
3 | 1

0 | 292

2

25.09.2014 12:55

T Зарубежное кино [HDDVDRip / BDRip / WEB-DL / HDTV 1080/720р] Плохие слова / Bad Words (Джейсон Бейтман) [2013 г., Комедия, BDRip 720p] Dub (RUS, PlayFamily) + VO (RUS, Lord32x) + Original (ENG) + Subs (RUS, ENG, ESP, FRA) Чистый звук Ведьмочка
24 | 0

0 | 311

7

25.09.2014 14:39

T Зарубежное кино [HDDVDRip / BDRip / WEB-DL / HDTV 1080/720р] Плохие слова / Bad Words (Джейсон Бейтман) [2013 г., Комедия, BDRip 720p] Dub (RUS, iTunes Russia) + Original (ENG) + Comments (ENG) + Subs (RUS, ENG, ESP, FRA) Ведьмочка
0 | 0

0 | 507

0

06.10.2014 18:52

Зарубежное кино [HDDVDRip / BDRip / WEB-DL / HDTV 1080/720р] Плохие слова / Bad Words (Джейсон Бейтман) [2013 г., Комедия, BDRip 720p] Dub (RUS, Лицензия) + Subs (RUS, ENG) Ведьмочка
11 | 1

0 | 535

6

01.11.2014 15:18


Яндекс.Метрика powered by Sphinx


В Н И М А Н И Е
Сайт не распространяет и не хранит электронные версии произведений, а лишь бесплатно и без коммерческой выгоды (не требуя взамен платы,
SMS и т.д.) предоставляет доступ к создаваемому пользователями каталогу ссылок на торрент-файлы, которые содержат только списки хеш-сумм.
Убедительная просьба с жалобами обращаться напрямую к пользователю, разместившему торрент файл.

Вверх