Loading...
Error

Поворот не туда 6: Последний курорт / Wrong Turn 6: Last Resort (Валерий Милев) [2014 г., Ужасы, BDRip-AVC] MVO (RUS, Лицензия) + Original (ENG) + Subs (RUS, ENG) UNRATED

Статистика раздачи
Размер:  2,18 GB   |    Зарегистрирован:  2 года 1 месяц   |    Скачан:  11 раз

Полного источника не было: 1 год

Сидов:  0  |  0 KB/s  ]   Личеров:  0  |  0 KB/s  ]

* - сиды/пиры с внешних источников

   
 
Автор Сообщение

Ведьмочка Пол:Жен

01-Ноя-2014 03:53

Поворот не туда 6: Последний курорт / Wrong Turn 6: Last Resort


Страна: США
Год выпуска: 2014
Жанр: Ужасы
Продолжительность: 01:30:30
Режиссёр: Валерий Милев
В ролях: Сэди Кац, Энтони Эллот, Акилла Золл, Ролло Скиннер, Билли Эшворт, Роксанна Паллетт, Крис Джарвис, Асен Асенов, Гарри Белчер, Риз Койро
Сюжет фильма:
В поисках внезапного и таинственного наследства, Дэнни и его друзья оказываются в Хобб Спрингс, на заброшенном курорте в горах Западной Вирджинии. Вскоре Дэнни узнает, что его родственники, которых он никогда не знал, вели довольно странный образ жизни, основывающийся на каннибализме. Дэнни придется выбирать между друзьями и родственниками.

Озвучивание:
  • Профессиональный, Многоголосный, Русский [Лицензия]
  • Оригинал, Английский

Качество видео: BDRip-AVC
Формат: MKV

Видео: AVC, 1056x594 (16:9), 23.976 fps, 2618 Кбит/сек
Аудио #1: AC-3, 384 Кбит/сек, 6 Каналов, 48.0 КГц
Аудио #2: AC-3, 448 Кбит/сек, 6 Каналов, 48.0 КГц

Субтитры #1: UTF-8 [Русские, Полные, Keith]
Субтитры #2: UTF-8 [Английские, Полные]
Субтитры #3: UTF-8 [Английские, SDH]

Rip by:



General
Unique ID : 183386767339920641028151523224574175164 (0x89F701B4A113201B9BE37AA6358727BC)
Complete name : \Povorot.ne.tuda.6.Poslednij.kurort.BDRip-AVC.MVO.2.18Gb...stalkerok.new-team.mkv
Format : Matroska
Format version : Version 4 / Version 2
File size : 2.18 GiB
Duration : 1h 30mn
Overall bit rate : 3 452 Kbps
Movie name : Wrong Turn 6: Last Resort (2014) (New-Team) (Rip by Stalker oK)
Encoded date : UTC 2014-10-30 19:42:17
Writing application : mkvmerge v6.1.0 ('Old Devil') built on Mar 4 2013 09:10:42
Writing library : libebml v1.3.0 + libmatroska v1.4.0

Video
ID : 1
Format : AVC
Format/Info : Advanced Video Codec
Format profile : High@L4.1
Format settings, CABAC : Yes
Format settings, ReFrames : 11 frames
Codec ID : V_MPEG4/ISO/AVC
Duration : 1h 30mn
Bit rate : 2 618 Kbps
Width : 1 056 pixels
Height : 594 pixels
Display aspect ratio : 16:9
Frame rate mode : Constant
Frame rate : 23.976 fps
Color space : YUV
Chroma subsampling : 4:2:0
Bit depth : 8 bits
Scan type : Progressive
Bits/(Pixel*Frame) : 0.174
Stream size : 1.61 GiB (74%)
Writing library : x264 core 142 r2431 ac76440
Encoding settings : cabac=1 / ref=11 / deblock=1:-3:-3 / analyse=0x3:0x133 / me=umh / subme=11 / psy=1 / psy_rd=1.05:0.15 / mixed_ref=1 / me_range=48 / chroma_me=1 / trellis=2 / 8x8dct=1 / cqm=0 / deadzone=21,11 / fast_pskip=0 / chroma_qp_offset=-3 / threads=12 / lookahead_threads=3 / sliced_threads=0 / nr=0 / decimate=0 / interlaced=0 / bluray_compat=0 / constrained_intra=0 / bframes=12 / b_pyramid=2 / b_adapt=2 / b_bias=0 / direct=3 / weightb=1 / open_gop=0 / weightp=2 / keyint=240 / keyint_min=23 / scenecut=40 / intra_refresh=0 / rc_lookahead=80 / rc=2pass / mbtree=0 / bitrate=2618 / ratetol=1.0 / qcomp=0.70 / qpmin=0 / qpmax=69 / qpstep=4 / cplxblur=20.0 / qblur=0.5 / vbv_maxrate=20000 / vbv_bufsize=25000 / nal_hrd=none / filler=0 / ip_ratio=1.20 / pb_ratio=1.10 / aq=2:0.80
Default : Yes
Forced : No

Audio #1
ID : 2
Format : AC-3
Format/Info : Audio Coding 3
Mode extension : CM (complete main)
Format settings, Endianness : Big
Codec ID : A_AC3
Duration : 1h 30mn
Bit rate mode : Constant
Bit rate : 384 Kbps
Channel(s) : 6 channels
Channel positions : Front: L C R, Side: L R, LFE
Sampling rate : 48.0 KHz
Bit depth : 16 bits
Compression mode : Lossy
Stream size : 249 MiB (11%)
Language : Russian
Default : Yes
Forced : No

Audio #2
ID : 3
Format : AC-3
Format/Info : Audio Coding 3
Mode extension : CM (complete main)
Format settings, Endianness : Big
Codec ID : A_AC3
Duration : 1h 30mn
Bit rate mode : Constant
Bit rate : 448 Kbps
Channel(s) : 6 channels
Channel positions : Front: L C R, Side: L R, LFE
Sampling rate : 48.0 KHz
Bit depth : 16 bits
Compression mode : Lossy
Stream size : 290 MiB (13%)
Language : English
Default : No
Forced : No

Text #1
ID : 4
Format : UTF-8
Codec ID : S_TEXT/UTF8
Codec ID/Info : UTF-8 Plain Text
Title : RUS Sub Keith
Language : Russian
Default : No
Forced : No

Text #2
ID : 5
Format : UTF-8
Codec ID : S_TEXT/UTF8
Codec ID/Info : UTF-8 Plain Text
Title : ENG Sub full
Language : English
Default : No
Forced : No

Text #3
ID : 6
Format : UTF-8
Codec ID : S_TEXT/UTF8
Codec ID/Info : UTF-8 Plain Text
Title : ENG Sub SDH
Language : English
Default : No
Forced : No

Menu
00:00:00.000 : :Chapter 01
00:04:51.666 : :Chapter 02
00:08:46.568 : :Chapter 03
00:12:18.196 : :Chapter 04
00:13:59.839 : :Chapter 05
00:15:56.164 : :Chapter 06
00:17:37.848 : :Chapter 07
00:20:10.334 : :Chapter 08
00:23:33.245 : :Chapter 09
00:27:01.161 : :Chapter 10
00:29:46.868 : :Chapter 11
00:34:01.289 : :Chapter 12
00:36:03.912 : :Chapter 13
00:41:20.103 : :Chapter 14
00:43:54.090 : :Chapter 15
00:47:40.232 : :Chapter 16
00:53:11.271 : :Chapter 17
00:56:45.027 : :Chapter 18
01:00:17.280 : :Chapter 19
01:05:47.277 : :Chapter 20
01:07:31.464 : :Chapter 21
01:09:44.347 : :Chapter 22
01:12:59.750 : :Chapter 23
01:15:09.088 : :Chapter 24
01:17:32.147 : :Chapter 25
01:20:38.459 : :Chapter 26
01:23:17.993 : :Chapter 27
01:26:34.189 : :Chapter 28


picpicpic
Для увеличения картинки щелкните мышкой по превью

Этот торрент недоступен для скачивания без регистрации, однако доступен по публичной magnet-ссылке (источники с публичных трекеров). Перед использованием ссылки прочтите, пожалуйста Пользовательское соглашение, а также как можно дольше оставайтесь на раздаче! Для того, чтобы скачать сам торрент-файл (который видит больше источников), а также для того, чтобы поблагодарить релизера, вам необходимо зарегистрироваться. Если регистрироваться лень - вы можете также попробовать скачать релиз по нашим партнерским ссылкам ниже.

[underverse.su].t45802.torrent
Трекер: Зарегистрирован   [ 01.11.2014 03:53 ]  

Статус: проверено (by Ведьмочка at 01.11.2014 03:53)
Поблагодарили: 1 человек
Тип торрента: публичный - доступные источники с открытых трекеров: 
Размер: 2,18 GB (занимает 1/2 DVDR, для записи нужно 1 болванка DVDR/RW)
 
 
Похожие темы
Форум Тема Автор Торрент Отв. Посл. сооб.
Зарубежное кино [DVDRip, Low-Res HDRip, и т.д.] Поворот не туда 5 / Wrong Turn 5 (Деклан О’Брайэн) [2012 г., ужасы, триллер, DVDRip] VO Garnett
1 | 0

2 | 1516

15

27.10.2012 01:47

Зарубежное кино [DVDRip, Low-Res HDRip, и т.д.] Поворот не туда 5 / Wrong Turn 5 (Деклан О’Брайэн) [2012 г., ужасы, триллер, HDRip] MVO 90ytr90
5 | 1

0 | 1305

21

01.12.2012 13:59

Зарубежное кино [DVDRip, Low-Res HDRip, и т.д.] Поворот не туда 5 / Wrong Turn 5 (Деклан О’Брайэн) [2012 г., ужасы, триллер, HDRip] MVO 90ytr90
0 | 0

0 | 1153

7

06.12.2012 20:38

Зарубежное кино [DVDRip, Low-Res HDRip, и т.д.] Поворот не туда 6: Последний курорт / Wrong Turn 6: Last Resort (Валерий Милев) [2014 г., Ужасы, HDRip] MVO (RUS, Официальный) UNRATED Ведьмочка
6 | 0

0 | 828

26

20.10.2014 09:03

Зарубежное кино [DVDRip, Low-Res HDRip, и т.д.] Поворот не туда 6: Последний курорт / Wrong Turn 6: Last Resort (Валерий Милев) [2014 г., Ужасы, BDRip-AVC] MVO (RUS, IVI) + Original (ENG) + Subs (RUS, ENG) UNRATED Ведьмочка
2 | 0

1 | 678

14

21.10.2014 14:23

Зарубежное кино [DVDRip, Low-Res HDRip, и т.д.] Поворот не туда 6: Последний курорт / Wrong Turn 6: Last Resort (Валерий Милев) [2014 г., Ужасы, HDRip] MVO (RUS, Лицензия) UNRATED Ведьмочка
6 | 0

0 | 430

9

27.10.2014 23:01

Зарубежное кино [DVDRip, Low-Res HDRip, и т.д.] Поворот не туда: Антология / Wrong Turn: Antology (Роб Шмидт, Джо Линч, Деклан О’Брайэн , Валерий Милев) [2003- 2014гг., Ужасы, Триллер, Криминал, BDRip-AVC] Dub (RUS, R5) + Original (ENG) + Subs... viktor.r-79
2 | 1

2 | 1582

21

11.04.2016 17:07

Зарубежное кино [HDDVDRip / BDRip / WEB-DL / HDTV 1080/720р] Поворот не туда 6: Последний курорт / Wrong Turn 6: Last Resort (Валерий Милев) [2014 г., Ужасы, BDRip 720p] MVO (RUS, Официальный) + Original (ENG) UNRATED Ведьмочка
0 | 0

0 | 660

6

20.10.2014 08:58

Зарубежное кино [HDDVDRip / BDRip / WEB-DL / HDTV 1080/720р] Поворот не туда 6: Последний курорт / Wrong Turn 6: Last Resort (Валерий Милев) [2014 г., Ужасы, BDRip 1080p] MVO (RUS, Официальный) + Original (ENG) + Subs (RUS, ENG) UNRATED Ведьмочка
0 | 0

0 | 649

8

21.10.2014 05:10

Зарубежное кино [HDDVDRip / BDRip / WEB-DL / HDTV 1080/720р] Поворот не туда 6: Последний курорт / Wrong Turn 6: Last Resort (Валерий Милев) [2014 г., Ужасы, BDRip 720p] MVO (RUS, Официальный) UNRATED Ведьмочка
2 | 1

0 | 756

10

22.10.2014 22:33


Яндекс.Метрика powered by Sphinx


В Н И М А Н И Е
Сайт не распространяет и не хранит электронные версии произведений, а лишь бесплатно и без коммерческой выгоды (не требуя взамен платы,
SMS и т.д.) предоставляет доступ к создаваемому пользователями каталогу ссылок на торрент-файлы, которые содержат только списки хеш-сумм.
Убедительная просьба с жалобами обращаться напрямую к пользователю, разместившему торрент файл.

Вверх