Loading...
Error

Раскаленный периметр (1-4 серии из 4) (Игорь Драка) [2014 г., детектив, криминал, SatRip]

Статистика раздачи
Размер:  2,32 GB   |    Зарегистрирован:  2 года 1 месяц   |    Скачан:  41 раз

Полного источника не было: 2 дня 23 часа

Сидов:  0  |  0 KB/s  ]   Личеров:  0  |  0 KB/s  ]

* - сиды/пиры с внешних источников

   
 
Автор Сообщение

nemos Пол:Муж

31-Окт-2014 19:33





Год выпуска: 2014
Жанр: детектив, криминал
Страна: Россия
Режиссер: Игорь Драка
В ролях: Сергей Горобченко, Никита Волков, Юра Николаенко, Ксения Скакун, Анатолий Бобер, Анастасия Спектор, Денис Старков, Алексей Суренский, Владимир Чернышов, Константин Шелестун, Алина Титова, Артур Федынко
Качество видео: SatRip

Продолжительность: 00:42:42 (Серия)
Формат: AVI
Видео: XviD, 720x448, 1 802 kbps
Аудио: русский, AC3 2.0, 128 kbps


Андрей и Игорь, только что демобилизовавшиеся десантники, едут отдыхать в небольшой приморский городок, где живет родная тетя Игоря. От нее друзья узнают, что на пляжах города стали похищать девушек. Полиция ведет поиски, но тщетно. А вскоре полицейские задерживают Андрея и Игоря, так как пропали девушки, с которыми парни познакомились накануне.
Дело ведет майор Никольский. Поняв, что Андрей и Игорь не имеют отношения к похищениям, он рассказывает, что, по оперативной информации, к преступлениям причастны двое парней. У сыщиков весьма скудные сведения: известно лишь, что парни высокие и мускулистые.
На следующий день Игорь видит, как двое крепких парней знакомятся на пляже с девушками. Андрей не придает этому значения и идет купаться. А когда выходит из воды, обнаруживает, что Игорь лежит на песке без сознания. В тяжёлом состоянии Игоря отвозят в местную больницу, он в коме. Врачам не удаётся установить точный диагноз. Тем временем Андрей разыскивает Никольского и рассказывает ему о двух парнях, которых заметил Игорь. Никольский отправляет в больницу экспертов, которые выясняют, что Игорю сделали укол сильнодействующего препарата. Андрей просит Никольского разрешить ему участвовать в расследовании...


Код:

E:\Фильмы Раздача-1\Raskalennyi.perimetr.SATRip.[www.*другой трекер*]\Raskalennyi.perimetr.04.SATRip.[www.*другой трекер*].avi
   General
      Complete name : E:\Фильмы Раздача-1\Raskalennyi.perimetr.SATRip.[www.*другой трекер*]\Raskalennyi.perimetr.04.SATRip.[www.*другой трекер*].avi
      Format : AVI
      Format/Info : Audio Video Interleave
      File size : 593 MiB
      Duration : 42mn 42s
      Overall bit rate : 1 940 Kbps
      Writing application : VirtualDubMod 1.5.10.3 | www.virtualdub-fr.org || (build 2550/release)
      Writing library : VirtualDubMod build 2550/release
   Video #0
      ID : 0
      Format : MPEG-4 Visual
      Format profile : Advanced Simple@L5
      Format settings, BVOP : 2
      Format settings, QPel : No
      Format settings, GMC : No warppoints
      Format settings, Matrix : Default (H.263)
      Codec ID : XVID
      Codec ID/Hint : XviD
      Duration : 42mn 42s
      Bit rate : 1 802 Kbps
      Width : 720 pixels
      Height : 448 pixels
      Display aspect ratio : 1.607
      Frame rate : 25.000 fps
      Color space : YUV
      Chroma subsampling : 4:2:0
      Bit depth : 8 bits
      Scan type : Progressive
      Compression mode : Lossy
      Bits/(Pixel*Frame) : 0.223
      Stream size : 551 MiB (93%)
      Writing library : XviD 1.2.1 (UTC 2008-12-04)
   Audio #1
      ID : 1
      Format : MPEG Audio
      Format version : Version 1
      Format profile : Layer 3
      Mode : Joint stereo
      Codec ID : 55
      Codec ID/Hint : MP3
      Duration : 42mn 42s
      Bit rate mode : Constant
      Bit rate : 128 Kbps
      Channel(s) : 2 channels
      Sampling rate : 48.0 KHz
      Compression mode : Lossy
      Stream size : 39.1 MiB (7%)
      Alignment : Aligned on interleaves
      Interleave, duration : 40 ms (1.00 video frame)
      Interleave, preload duration : 504 ms
      Writing library : LAME3.99r
      Encoding settings : -m j -V 4 -q 9 -lowpass 17 -b 128
picpicpicpicpicpicpicpicpicpicpicpic
Для увеличения картинки щелкните мышкой по превью

Этот торрент недоступен для скачивания без регистрации, однако доступен по публичной magnet-ссылке (источники с публичных трекеров). Перед использованием ссылки прочтите, пожалуйста Пользовательское соглашение, а также как можно дольше оставайтесь на раздаче! Для того, чтобы скачать сам торрент-файл (который видит больше источников), а также для того, чтобы поблагодарить релизера, вам необходимо зарегистрироваться. Если регистрироваться лень - вы можете также попробовать скачать релиз по нашим партнерским ссылкам ниже.

[underverse.su].t45794.torrent
Трекер: Зарегистрирован   [ 31.10.2014 19:33 ]  

Статус: проверено (by nemos at 31.10.2014 19:33)
Поблагодарили: 9 человек
Тип торрента: публичный - доступные источники с открытых трекеров: 
Размер: 2,32 GB (занимает 0,53 DVDR, для записи нужно 1 болванка DVDR/RW)
 
 

kursant Пол:Муж

07-Ноя-2014 15:49

:good:

Яндекс.Метрика powered by Sphinx


В Н И М А Н И Е
Сайт не распространяет и не хранит электронные версии произведений, а лишь бесплатно и без коммерческой выгоды (не требуя взамен платы,
SMS и т.д.) предоставляет доступ к создаваемому пользователями каталогу ссылок на торрент-файлы, которые содержат только списки хеш-сумм.
Убедительная просьба с жалобами обращаться напрямую к пользователю, разместившему торрент файл.

Вверх