Loading...
Error

Побудь в моей шкуре / Under the Skin (Джонатан Глэйзер / Jonathan Glazer) [2013, Фантастика, триллер, драма, BDRip-AVC] MVO (RUS, R5) + Original (ENG) + Subs (RUS, ENG)

Статистика раздачи
Размер:  2,18 GB   |    Зарегистрирован:  2 года 1 месяц   |    Скачан:  20 раз
Сидов:  1  |  0 KB/s  ]   Личеров:  0  |  0 KB/s  ]

* - сиды/пиры с внешних источников

   
 
Автор Сообщение

viktor.r-79 Пол:Муж

31-Окт-2014 17:49

Побудь в моей шкуре / Under the Skin

Год выпуска: 2013
Выпущено: Великобритания, США, Швейцария / Film4, British Film Institute (BFI), Silver ReelUK Film Council...
Жанр: Фантастика, триллер, драма
Продолжительность: 01:48:16
Перевод: Профессиональный (многоголосый, закадровый) [R5]
Субтитры: Русские, английские (Full + SDH)
Навигация по главам: Есть
Режиссер:
Джонатан Глэйзер / Jonathan Glazer
В ролях:
Скарлетт Йоханссон, Джереми МакУильямс, Линси Тейлор Маккэй, Даги МакКоннелл, Кевин МакАлинден, Д. Мид, Эндрю Горман, Джо Шула, Криштоф Гадек, Рой Армстронг

О фильме:
Действие развивается в Шотландии, где каждый день по трассе Эдинбург-Глазго ездит задрипанная машина с роскошным водителем. За рулем пышногрудая брюнетка с огромными зелеными глазами. Она подбирает автостопщиков, в основном здоровых и мощных мужчин, и парализует их. Девица на поверку оказывается представительницей иной цивилизации, чьи сородичи развели бурную деятельность в Шотландии
Качество: BDRip-AVC
Формат: MKV
Видео кодек: x.264
Аудио кодек: AС3
Видео: 1012x546 (1,853), 23,976 fps, 1991 kbps, 0.150 bit/pixel
Аудио#1: 48 kHz, AC3 Dolby Digital, 3/2 (L,C,R,l,r) + LFE ch, 448.00 kbps |RUS|
Аудио#2: 48 kHz, AC3 Dolby Digital, 3/2 (L,C,R,l,r) + LFE ch, 448.00 kbps |ENG|
D:\торрент\Pobud'.v.Moyei.Shkure.2013.DUAL.BDRip.x264.-HELLYWOOD.mkv
General
Unique ID : 217022285678272379147571580504097092908 (0xA344F8CBBB938300BB5DB989208AF52C)
Complete name : D:\торрент\Pobud'.v.Moyei.Shkure.2013.DUAL.BDRip.x264.-HELLYWOOD.mkv
Format : Matroska
Format version : Version 4 / Version 2
File size : 2.18 GiB
Duration : 1h 48mn
Overall bit rate : 2 888 Kbps
Movie name : Under the Skin (2013) - HELLYWOOD
Encoded date : UTC 2014-10-31 16:01:29
Writing application : mkvmerge v5.9.0 ('On The Loose') built on Dec 15 2012 16:39:58
Writing library : libebml v1.3.0 + libmatroska v1.4.0
Video #1
ID : 1
Format : AVC
Format/Info : Advanced Video Codec
Format profile : High@L4.1
Format settings, CABAC : Yes
Format settings, ReFrames : 12 frames
Codec ID : V_MPEG4/ISO/AVC
Duration : 1h 48mn
Bit rate : 1 991 Kbps
Width : 1 012 pixels
Height : 546 pixels
Display aspect ratio : 1.853
Frame rate : 23.976 fps
Color space : YUV
Chroma subsampling : 4:2:0
Bit depth : 8 bits
Scan type : Progressive
Bits/(Pixel*Frame) : 0.150
Stream size : 1.46 GiB (67%)
Title : potroks
Writing library : x264 core 130 r2273 b3065e6
Encoding settings : cabac=1 / ref=12 / deblock=1:-2:-2 / analyse=0x3:0x133 / me=umh / subme=11 / psy=1 / psy_rd=1.01:0.10 / mixed_ref=1 / me_range=48 / chroma_me=1 / trellis=2 / 8x8dct=1 / cqm=0 / deadzone=21,11 / fast_pskip=0 / chroma_qp_offset=-3 / threads=9 / lookahead_threads=6 / sliced_threads=0 / nr=0 / decimate=0 / interlaced=0 / bluray_compat=0 / constrained_intra=0 / bframes=13 / b_pyramid=2 / b_adapt=2 / b_bias=0 / direct=3 / weightb=1 / open_gop=0 / weightp=2 / keyint=250 / keyint_min=23 / scenecut=40 / intra_refresh=0 / rc_lookahead=60 / rc=2pass / mbtree=0 / bitrate=1991 / ratetol=1.0 / qcomp=0.70 / qpmin=0 / qpmax=69 / qpstep=4 / cplxblur=20.0 / qblur=0.5 / vbv_maxrate=50000 / vbv_bufsize=62500 / nal_hrd=none / ip_ratio=1.35 / pb_ratio=1.25 / aq=1:0.80
Language : English
Audio #2
ID : 2
Format : AC-3
Format/Info : Audio Coding 3
Mode extension : CM (complete main)
Codec ID : A_AC3
Duration : 1h 48mn
Bit rate mode : Constant
Bit rate : 448 Kbps
Channel(s) : 6 channels
Channel positions : Front: L C R, Side: L R, LFE
Sampling rate : 48.0 KHz
Bit depth : 16 bits
Compression mode : Lossy
Stream size : 347 MiB (16%)
Title : MVO | DD 5.1 @ 448 kbps - R5
Language : Russian
Audio #3
ID : 3
Format : AC-3
Format/Info : Audio Coding 3
Mode extension : CM (complete main)
Codec ID : A_AC3
Duration : 1h 48mn
Bit rate mode : Constant
Bit rate : 448 Kbps
Channel(s) : 6 channels
Channel positions : Front: L C R, Side: L R, LFE
Sampling rate : 48.0 KHz
Bit depth : 16 bits
Compression mode : Lossy
Stream size : 347 MiB (16%)
Title : Original | DD 5.1 @ 448 kbps
Language : English
Text #4
ID : 4
Format : UTF-8
Codec ID : S_TEXT/UTF8
Codec ID/Info : UTF-8 Plain Text
Language : Russian
Text #5
ID : 5
Format : UTF-8
Codec ID : S_TEXT/UTF8
Codec ID/Info : UTF-8 Plain Text
Language : English
Text #6
ID : 6
Format : UTF-8
Codec ID : S_TEXT/UTF8
Codec ID/Info : UTF-8 Plain Text
Title : SDH
Language : English
pic pic pic pic pic pic pic pic
Для увеличения картинки щелкните мышкой по превью

Автор рипа: potroks

Этот торрент недоступен для скачивания без регистрации, однако доступен по публичной magnet-ссылке (источники с публичных трекеров). Перед использованием ссылки прочтите, пожалуйста Пользовательское соглашение, а также как можно дольше оставайтесь на раздаче! Для того, чтобы скачать сам торрент-файл (который видит больше источников), а также для того, чтобы поблагодарить релизера, вам необходимо зарегистрироваться. Если регистрироваться лень - вы можете также попробовать скачать релиз по нашим партнерским ссылкам ниже.

[underverse.su].t45793.torrent
Трекер: Зарегистрирован   [ 31.10.2014 17:49 ]  

Статус: проверено (by Ведьмочка at 31.10.2014 21:57)
Поблагодарили: 1 человек
Тип торрента: публичный - доступные источники с открытых трекеров: 
Размер: 2,18 GB (занимает 1/2 DVDR, для записи нужно 1 болванка DVDR/RW)
 
 
Похожие темы
Форум Тема Автор Торрент Отв. Посл. сооб.
Зарубежное кино [DVDRip, Low-Res HDRip, и т.д.] Побудь в моей шкуре / Under the Skin (Джонатан Глейзер) [2014 г., Фантастика, Триллер, Драма, HDRip] MVO (RUS) Ведьмочка
10 | 0

2 | 1539

135

11.01.2015 19:05

Зарубежное кино [DVDRip, Low-Res HDRip, и т.д.] Побудь в моей шкуре / Under the Skin (Джонатан Глейзер) [2014 г., Фантастика, Триллер, Драма, HDRip-AVC] MVO (RUS) + Subs (RUS, ENG) Ведьмочка
1 | 0

0 | 1308

42

03.09.2014 05:04

Зарубежное кино [DVDRip, Low-Res HDRip, и т.д.] Побудь в моей шкуре / Под кожей / Under the Skin (Джонатан Глейзер) [2013, фантастика, триллер, драма, HDRip] MVO |Лицензия| + Original (eng) viktor.r-79
1 | 0

0 | 1328

23

31.10.2014 09:54

Зарубежное кино [DVDRip, Low-Res HDRip, и т.д.] Побудь в моей шкуре / Under the Skin (Джонатан Глейзер / Jonathan Glazer) [2013 г., фантастика, триллер, драма, HDRip] MVO 90ytr90
4 | 1

0 | 1177

10

27.02.2015 06:38

Зарубежное кино [HDDVDRip / BDRip / WEB-DL / HDTV 1080/720р] Побудь в моей шкуре / Under the Skin (Джонатан Глейзер) [2014 г., Фантастика, Триллер, Драма, BDRip 1080p] MVO (RUS) + Original (ENG) + Subs (RUS, ENG) Ведьмочка
6 | 0

0 | 2312

71

04.09.2014 15:49

Зарубежное кино [HDDVDRip / BDRip / WEB-DL / HDTV 1080/720р] Побудь в моей шкуре / Under the Skin (Джонатан Глейзер) [2014 г., Фантастика, Триллер, Драма, BDRip 720p] MVO (RUS, Лицензия) + Original (ENG) + Subs (ENG, ROU) Ведьмочка
0 | 0

3 | 1290

15

10.11.2014 00:03

Зарубежное кино [HDDVDRip / BDRip / WEB-DL / HDTV 1080/720р] Побудь в моей шкуре / Under the Skin (Джонатан Глейзер / Jonathan Glazer) [2013 г., фантастика, триллер, драма, BDRip 720p] MVO + Sub (Rus, Eng) 90ytr90
24 | 0

0 | 1014

16

27.02.2015 06:45


Яндекс.Метрика powered by Sphinx


В Н И М А Н И Е
Сайт не распространяет и не хранит электронные версии произведений, а лишь бесплатно и без коммерческой выгоды (не требуя взамен платы,
SMS и т.д.) предоставляет доступ к создаваемому пользователями каталогу ссылок на торрент-файлы, которые содержат только списки хеш-сумм.
Убедительная просьба с жалобами обращаться напрямую к пользователю, разместившему торрент файл.

Вверх