Loading...
Error

Страх сцены / Stage Fright (Джером Сэйбл / Jerome Sable) [2014, ужасы, триллер, мюзикл, HDRip] MVO

Статистика раздачи
Размер:  1,37 GB   |    Зарегистрирован:  2 года 1 месяц   |    Скачан:  7 раз

Полного источника не было: 1 год

Сидов:  0  |  0 KB/s  ]   Личеров:  0  |  0 KB/s  ]

* - сиды/пиры с внешних источников

   
 
Автор Сообщение

viktor.r-79 Пол:Муж

31-Окт-2014 16:38

Страх сцены / Stage Fright
«Нет слуха - умрёшь; есть слух - умрёшь в муках»

Год выпуска: 2014
Жанр: ужасы, триллер, мюзикл
Выпущено: Канада / Serendipity Point Films, XYZ Films, Citizen Jones
Продолжительность: 01:28:16
Перевод: Профессиональный (многоголосный) Официальный
Режиссёр:
Джером Сэйбл / Jerome Sable
В ролях:
Элли МакДональд, Мит Лоаф, Дуглас Смит, Минни Драйвер, Брэндон Юрановитц, Мелани Лишман, Томас Алдерсон, Кент Нолан, Эфраим Эллис, Лиэнн Миллер

Описание:
Кровожадный киллер в маске, вооруженный тесаком, терроризирует музыкально-театральную труппу, репетирующую шоу "Призрак в опере в феодальной Японии", поскольку люто ненавидит мюзиклы. Кровь хлещет ручьями, отрезанные органы летят в камеру, настоящий праздник для любителей слэшеров.
Качество: HDRip
Формат: AVI
Видео кодек: XviD
Аудио кодек: AC3
Видео: 720x304 (2.35:1), 23.976 fps, XviD ~2015 kbps avg
Аудио: 48 kHz, AC3 Dolby Digital, 2/0 (L,R) ch, ~192.00 kbps avg
D:\торрент\Strah.sceny.2014.P.HDRip.1400MB.avi
General
Complete name : D:\торрент\Strah.sceny.2014.P.HDRip.1400MB.avi
Format : AVI
Format/Info : Audio Video Interleave
File size : 1.37 GiB
Duration : 1h 28mn
Overall bit rate : 2 216 Kbps
Writing application : VirtualDubMod 1.5.10.2 (build 2540/release)
Writing library : VirtualDubMod build 2540/release
Video #0
ID : 0
Format : MPEG-4 Visual
Format profile : Advanced Simple@L5
Format settings, BVOP : 2
Format settings, QPel : No
Format settings, GMC : No warppoints
Format settings, Matrix : Default (MPEG)
Codec ID : XVID
Codec ID/Hint : XviD
Duration : 1h 28mn
Bit rate : 2 015 Kbps
Width : 720 pixels
Height : 304 pixels
Display aspect ratio : 2.35:1
Frame rate : 23.976 fps
Color space : YUV
Chroma subsampling : 4:2:0
Bit depth : 8 bits
Scan type : Progressive
Compression mode : Lossy
Bits/(Pixel*Frame) : 0.384
Stream size : 1.24 GiB (91%)
Writing library : XviD 1.2.1 (UTC 2008-12-04)
Audio #1
ID : 1
Format : AC-3
Format/Info : Audio Coding 3
Mode extension : CM (complete main)
Codec ID : 2000
Duration : 1h 28mn
Bit rate mode : Constant
Bit rate : 192 Kbps
Channel(s) : 2 channels
Channel positions : Front: L R
Sampling rate : 48.0 KHz
Bit depth : 16 bits
Compression mode : Lossy
Stream size : 121 MiB (9%)
Alignment : Split accross interleaves
Interleave, duration : 42 ms (1.00 video frame)
Interleave, preload duration : 500 ms
pic pic pic pic pic
Для увеличения картинки щелкните мышкой по превью

Этот торрент недоступен для скачивания без регистрации, однако доступен по публичной magnet-ссылке (источники с публичных трекеров). Перед использованием ссылки прочтите, пожалуйста Пользовательское соглашение, а также как можно дольше оставайтесь на раздаче! Для того, чтобы скачать сам торрент-файл (который видит больше источников), а также для того, чтобы поблагодарить релизера, вам необходимо зарегистрироваться. Если регистрироваться лень - вы можете также попробовать скачать релиз по нашим партнерским ссылкам ниже.

[underverse.su].t45792.torrent
Трекер: Зарегистрирован   [ 31.10.2014 16:38 ]  

Статус: проверено (by Ведьмочка at 31.10.2014 21:58)
Поблагодарили: пока никто не поблагодарил...
Тип торрента: публичный - доступные источники с открытых трекеров: 
Размер: 1,37 GB (занимает 0,31 DVDR, для записи нужно 1 болванка DVDR/RW)
 
 

Яндекс.Метрика powered by Sphinx


В Н И М А Н И Е
Сайт не распространяет и не хранит электронные версии произведений, а лишь бесплатно и без коммерческой выгоды (не требуя взамен платы,
SMS и т.д.) предоставляет доступ к создаваемому пользователями каталогу ссылок на торрент-файлы, которые содержат только списки хеш-сумм.
Убедительная просьба с жалобами обращаться напрямую к пользователю, разместившему торрент файл.

Вверх