Loading...
Error

Стриперлэнд / Стрипландия / Stripperland (Брэд МакКрэй) [2011 г., ужасы, комедия, HDRip] VO [ХихиДок] + Original

Статистика раздачи
Размер:  1,46 GB   |    Зарегистрирован:  2 года 1 месяц   |    Скачан:  21 раз

Полного источника не было: 1 год 5 месяцев

Сидов:  0  |  0 KB/s  ]   Личеров:  0  |  0 KB/s  ]

* - сиды/пиры с внешних источников

   
 
Автор Сообщение

Паукан Пол:Муж

31-Окт-2014 14:27

Стриперлэнд / Стрипландия / Stripperland


Название: Стриперлэнд / Стрипландия
Оригинальное название: Stripperland
Год выпуска: 2011
Жанр: Ужасы, комедия
Режиссер: Брэд МакКрэй
В ролях: Бен Шеппард, Марен МакГуайр, Илеана Херрин, Хэнк Картрайт, Дэниэл Болдуин, Ллойд Кауфман, Линни Куигли, Шел Бэйли, Бойд Бэнкс

Описание:
Жизнь маленького городка нарушается нашествием стриптизёрш - зомби. На своём пути они уничтожают всех мужчин. Молодой человек после посещения магазина встречает одну из их групп, его пытаются сожрать, но вовремя появляется мужчина, который здесь проездом, он расправляется с зомби и увозит с собой юношу. По дороге в тихое место он даёт парню прозвище – Айдахо. И вот они вместе пытаются придумать, как им избавить город от нашествия. А в это время уже и девушки городка начинают превращаться в зомби, и нет от них спасения. Нормальными остаются только две сестры, воссоединившись с парнями, они пытаются им помочь. Спасители уже перепробовали почти все способы, на какие были способны, в конце концов, находят единственный возможный. И во всём им помогали девушки, но каково же было удивление «Айдахо», когда он узнаёт, что сёстры тоже стрептизёрши.



Страна: США
Студия: Cheezy Flicks Entertainment
Продолжительность: 01:43:22
Перевод: Любительский (одноголосый закадровый) - ХихиДок
Оригинальная аудио-дорожка: Английская

Кодек: XviD
Качество: HDRip
Видео: XviD, 1502 Кбит/с, 720x400 (16:9), 23,976 кадр/с
Аудио #1: Русский, Dolby AC3, 48000 Гц, 256 Кбит/с, 2 канала (Стерео) - VO [ХихиДок]
Аудио #2: Английский, Dolby AC3, 48000 Гц, 256 Кбит/с, 2 канала (Стерео) - Оригинал
Субтитры: Нет

Сэмпл
General
Complete name : Stripperland (2011) HDRip.avi
Format : AVI
Format/Info : Audio Video Interleave
Format profile : OpenDML
Format settings : rec
File size : 1.46 GiB
Duration : 1h 43mn
Overall bit rate : 2 021 Kbps
Writing application : AVI-Mux GUI 1.17.8.3, Feb 16 201019:42:50

Video
ID : 0
Format : MPEG-4 Visual
Format profile : Advanced Simple@L5
Format settings, BVOP : No
Format settings, QPel : No
Format settings, GMC : No warppoints
Format settings, Matrix : Default (H.263)
Codec ID : XVID
Codec ID/Hint : XviD
Duration : 1h 43mn
Bit rate : 1 502 Kbps
Width : 720 pixels
Height : 400 pixels
Display aspect ratio : 16:9
Frame rate : 23.976 fps
Color space : YUV
Chroma subsampling : 4:2:0
Bit depth : 8 bits
Scan type : Progressive
Compression mode : Lossy
Bits/(Pixel*Frame) : 0.218
Stream size : 1.08 GiB (74%)
Writing library : XviD 62

Audio #1
ID : 1
Format : AC-3
Format/Info : Audio Coding 3
Mode extension : CM (complete main)
Codec ID : 2000
Duration : 1h 43mn
Bit rate mode : Constant
Bit rate : 256 Kbps
Channel(s) : 2 channels
Channel positions : Front: L R
Sampling rate : 48.0 KHz
Bit depth : 16 bits
Compression mode : Lossy
Stream size : 189 MiB (13%)
Alignment : Aligned on interleaves
Interleave, duration : 64 ms (1.53 video frames)
Interleave, preload duration : 192 ms
Title : Rus_ [ХихиДок]

Audio #2
ID : 2
Format : AC-3
Format/Info : Audio Coding 3
Mode extension : CM (complete main)
Codec ID : 2000
Duration : 1h 43mn
Bit rate mode : Constant
Bit rate : 256 Kbps
Channel(s) : 2 channels
Channel positions : Front: L R
Sampling rate : 48.0 KHz
Bit depth : 16 bits
Compression mode : Lossy
Stream size : 189 MiB (13%)
Alignment : Aligned on interleaves
Interleave, duration : 64 ms (1.53 video frames)
Interleave, preload duration : 192 ms
Title : Eng
pic pic pic
Для увеличения картинки щелкните мышкой по превью

Этот торрент недоступен для скачивания без регистрации, однако доступен по публичной magnet-ссылке (источники с публичных трекеров). Перед использованием ссылки прочтите, пожалуйста Пользовательское соглашение, а также как можно дольше оставайтесь на раздаче! Для того, чтобы скачать сам торрент-файл (который видит больше источников), а также для того, чтобы поблагодарить релизера, вам необходимо зарегистрироваться. Если регистрироваться лень - вы можете также попробовать скачать релиз по нашим партнерским ссылкам ниже.

[underverse.su].t45787.torrent
Трекер: Зарегистрирован   [ 31.10.2014 14:27 ]  

Статус: проверено (by Паукан at 31.10.2014 14:27)
Поблагодарили: 2 человека
Тип торрента: публичный - доступные источники с открытых трекеров: 
Размер: 1,46 GB (занимает 0,33 DVDR, для записи нужно 1 болванка DVDR/RW)
 
 

Яндекс.Метрика powered by Sphinx


В Н И М А Н И Е
Сайт не распространяет и не хранит электронные версии произведений, а лишь бесплатно и без коммерческой выгоды (не требуя взамен платы,
SMS и т.д.) предоставляет доступ к создаваемому пользователями каталогу ссылок на торрент-файлы, которые содержат только списки хеш-сумм.
Убедительная просьба с жалобами обращаться напрямую к пользователю, разместившему торрент файл.

Вверх