Loading...
Error

Побудь в моей шкуре / Под кожей / Under the Skin (Джонатан Глейзер) [2013, фантастика, триллер, драма, HDRip] MVO |Лицензия| + Original (eng)

Статистика раздачи
Размер:  2,05 GB   |    Зарегистрирован:  2 года 1 месяц   |    Скачан:  23 раза

Полного источника не было: 1 день 5 часов

Сидов:  0  |  0 KB/s  ]   Личеров:  0  |  0 KB/s  ]

* - сиды/пиры с внешних источников

   
 
Автор Сообщение

viktor.r-79 Пол:Муж

31-Окт-2014 09:54

Побудь в моей шкуре / Под кожей / Under the Skin

Год выхода: 2013
Жанр: фантастика, триллер, драма
Выпущено: Великобритания, США, Швейцария
Продолжительность: 01:48:14
Перевод: Профессиональный (многоголосый, закадровый) |Лицензия|
Режиссер:
Джонатан Глейзер
В ролях:
Скарлетт Йоханссон, Джереми МакУильямс, Линси Тейлор Маккэй, Даги МакКоннелл, Кевин МакАлинден, Д. Мид, Эндрю Горман, Джо Шула, Криштоф Гадек, Рой Армстронг

О фильме:
Действие развивается в Шотландии, где каждый день по трассе Эдинбург-Глазго ездит задрипанная машина с роскошным водителем. За рулем пышногрудая брюнетка с огромными зелеными глазами. Она подбирает автостопщиков, в основном здоровых и мощных мужчин, и парализует их. Девица на поверку оказывается представительницей иной цивилизации, чьи сородичи развели бурную деятельность в Шотландии…
Качество: HDRip
Формат: AVI
Видео кодек: XviD
Аудио кодек: AC3
Видео: 720x384 (1.875), 23.976 fps, 1800 Kbps (0.272 bit/pixel)
Аудио 1: 48 kHz, AC3 Dolby Digital, 3/2 (L,C,R,l,r) + LFE ch, ~448.00 kbps avg |Russian|
Аудио 2: 48 kHz, AC3 Dolby Digital, 3/2 (L,C,R,l,r) + LFE ch, ~448.00 kbps avg |English|
D:\торрент\Pobud.v.moey.Shkure.2013.P1.HDRip.2100Mb.avi
General
Complete name : D:\торрент\Pobud.v.moey.Shkure.2013.P1.HDRip.2100Mb.avi
Format : AVI
Format/Info : Audio Video Interleave
Format profile : OpenDML
File size : 2.05 GiB
Duration : 1h 48mn
Overall bit rate : 2 714 Kbps
Writing application : VirtualDubMod 1.5.10.2 (build 2540/release)
Writing library : VirtualDubMod build 2540/release
Video #0
ID : 0
Format : MPEG-4 Visual
Format profile : Advanced Simple@L5
Format settings, BVOP : 2
Format settings, QPel : No
Format settings, GMC : No warppoints
Format settings, Matrix : Custom
Codec ID : XVID
Codec ID/Hint : XviD
Duration : 1h 48mn
Bit rate : 1 800 Kbps
Width : 720 pixels
Height : 384 pixels
Display aspect ratio : 1.875
Frame rate : 23.976 fps
Color space : YUV
Chroma subsampling : 4:2:0
Bit depth : 8 bits
Scan type : Progressive
Compression mode : Lossy
Bits/(Pixel*Frame) : 0.272
Stream size : 1.36 GiB (66%)
Writing library : XviD 1.2.1 (UTC 2008-12-04)
Audio #1
ID : 1
Format : AC-3
Format/Info : Audio Coding 3
Mode extension : CM (complete main)
Codec ID : 2000
Duration : 1h 48mn
Bit rate mode : Constant
Bit rate : 448 Kbps
Channel(s) : 6 channels
Channel positions : Front: L C R, Side: L R, LFE
Sampling rate : 48.0 KHz
Bit depth : 16 bits
Compression mode : Lossy
Stream size : 347 MiB (17%)
Alignment : Split accross interleaves
Interleave, duration : 42 ms (1.00 video frame)
Interleave, preload duration : 500 ms
Audio #2
ID : 2
Format : AC-3
Format/Info : Audio Coding 3
Mode extension : CM (complete main)
Codec ID : 2000
Duration : 1h 48mn
Bit rate mode : Constant
Bit rate : 448 Kbps
Channel(s) : 6 channels
Channel positions : Front: L C R, Side: L R, LFE
Sampling rate : 48.0 KHz
Bit depth : 16 bits
Compression mode : Lossy
Stream size : 347 MiB (17%)
Alignment : Split accross interleaves
Interleave, duration : 42 ms (1.00 video frame)
Interleave, preload duration : 500 ms
pic pic pic pic pic
Для увеличения картинки щелкните мышкой по превью

Этот торрент недоступен для скачивания без регистрации, однако доступен по публичной magnet-ссылке (источники с публичных трекеров). Перед использованием ссылки прочтите, пожалуйста Пользовательское соглашение, а также как можно дольше оставайтесь на раздаче! Для того, чтобы скачать сам торрент-файл (который видит больше источников), а также для того, чтобы поблагодарить релизера, вам необходимо зарегистрироваться. Если регистрироваться лень - вы можете также попробовать скачать релиз по нашим партнерским ссылкам ниже.

[underverse.su].t45749.torrent
Трекер: Зарегистрирован   [ 31.10.2014 09:55 ]  

Статус: проверено (by nemos at 31.10.2014 10:16)
Поблагодарили: 2 человека
Тип торрента: публичный - доступные источники с открытых трекеров: 
Размер: 2,05 GB (занимает 0,47 DVDR, для записи нужно 1 болванка DVDR/RW)
 
 
Похожие темы
Форум Тема Автор Торрент Отв. Посл. сооб.
Зарубежное кино [DVDRip, Low-Res HDRip, и т.д.] Побудь в моей шкуре / Under the Skin (Джонатан Глейзер) [2014 г., Фантастика, Триллер, Драма, HDRip] MVO (RUS) Ведьмочка
10 | 0

2 | 1546

135

11.01.2015 19:05

Зарубежное кино [DVDRip, Low-Res HDRip, и т.д.] Побудь в моей шкуре / Under the Skin (Джонатан Глейзер) [2014 г., Фантастика, Триллер, Драма, HDRip-AVC] MVO (RUS) + Subs (RUS, ENG) Ведьмочка
1 | 0

0 | 1313

42

03.09.2014 05:04

Зарубежное кино [DVDRip, Low-Res HDRip, и т.д.] Побудь в моей шкуре / Under the Skin (Джонатан Глэйзер / Jonathan Glazer) [2013, Фантастика, триллер, драма, BDRip-AVC] MVO (RUS, R5) + Original (ENG) + Subs (RUS, ENG) viktor.r-79
3 | 0

0 | 1295

20

31.10.2014 17:49

Зарубежное кино [DVDRip, Low-Res HDRip, и т.д.] Побудь в моей шкуре / Under the Skin (Джонатан Глейзер / Jonathan Glazer) [2013 г., фантастика, триллер, драма, HDRip] MVO 90ytr90
4 | 1

0 | 1183

10

27.02.2015 06:38

Зарубежное кино [HDDVDRip / BDRip / WEB-DL / HDTV 1080/720р] Побудь в моей шкуре / Under the Skin (Джонатан Глейзер) [2014 г., Фантастика, Триллер, Драма, BDRip 1080p] MVO (RUS) + Original (ENG) + Subs (RUS, ENG) Ведьмочка
6 | 0

0 | 2316

71

04.09.2014 15:49

Зарубежное кино [HDDVDRip / BDRip / WEB-DL / HDTV 1080/720р] Побудь в моей шкуре / Under the Skin (Джонатан Глейзер) [2014 г., Фантастика, Триллер, Драма, BDRip 720p] MVO (RUS, Лицензия) + Original (ENG) + Subs (ENG, ROU) Ведьмочка
0 | 0

3 | 1295

15

10.11.2014 00:03

Зарубежное кино [HDDVDRip / BDRip / WEB-DL / HDTV 1080/720р] Побудь в моей шкуре / Under the Skin (Джонатан Глейзер / Jonathan Glazer) [2013 г., фантастика, триллер, драма, BDRip 720p] MVO + Sub (Rus, Eng) 90ytr90
24 | 0

0 | 1019

16

27.02.2015 06:45


Яндекс.Метрика powered by Sphinx


В Н И М А Н И Е
Сайт не распространяет и не хранит электронные версии произведений, а лишь бесплатно и без коммерческой выгоды (не требуя взамен платы,
SMS и т.д.) предоставляет доступ к создаваемому пользователями каталогу ссылок на торрент-файлы, которые содержат только списки хеш-сумм.
Убедительная просьба с жалобами обращаться напрямую к пользователю, разместившему торрент файл.

Вверх