Loading...
Error

Беглецы (Рустам Мосафир) [ 2014 г., Триллер, Приключения, WEB-DL.1080p]

Статистика раздачи
Размер:  3,35 GB   |    Зарегистрирован:  2 года 1 месяц   |    Скачан:  19 раз

Полного источника не было: 4 месяца 24 дня

Сидов:  0  |  0 KB/s  ]   Личеров:  0  |  0 KB/s  ]

* - сиды/пиры с внешних источников

   
 
Автор Сообщение

nemos Пол:Муж

30-Окт-2014 20:00





Год выпуска: премьера (РФ) 25 сентября 2014, «DreamTeam»
Жанр: Триллер, Приключения
Страна: Россия , Казахстан
Режиссер: Рустам Мосафир
В ролях: Пётр Фёдоров, Елизавета Боярская, Валерий Гришко, Сергей Цепов, Александр Самойлов, Ерик Жолжаксынов, Кирилл Анисимов, Юрис Лауциньш, Сейдулла Молдаханов, Гульнур Кожахметова
Качество видео: WEB-DL.1080p

Продолжительность: 01:28:00
Формат: MKV
Видео: MPEG-4 AVC, 1916x1080, 4941 kbps
Аудио: русский, AC3 5.1, 384 kbps


Он — вне закона, по его пятам идут охотники за головами. Она знает тайгу, как свои пять пальцев, и только вместе они могут остаться в живых. Тайга общая: кто сильнее, тот и прав, а охота уже началась…

Код:

E:\Фильмы Раздача-1\B3glecy.2014.O.WEB-DL.1080p.mkv
   General
      Unique ID : 236155362228099970448967202674589508316 (0xB1A9DE4D1EF1DE3783A5010820F722DC)
      Complete name : E:\Фильмы Раздача-1\B3glecy.2014.O.WEB-DL.1080p.mkv
      Format : Matroska
      Format version : Version 4 / Version 2
      File size : 3.35 GiB
      Duration : 1h 28mn
      Overall bit rate : 5 433 Kbps
      Encoded date : UTC 2014-10-29 20:25:38
      Writing application : mkvmerge v6.9.1 ('Blue Panther') 64bit built on Apr 18 2014 18:23:38
      Writing library : libebml v1.3.0 + libmatroska v1.4.1
   Video #1
      ID : 1
      Format : AVC
      Format/Info : Advanced Video Codec
      Format profile : High@L4.0
      Format settings, CABAC : Yes
      Format settings, ReFrames : 4 frames
      Codec ID : V_MPEG4/ISO/AVC
      Duration : 1h 28mn
      Bit rate : 4 941 Kbps
      Width : 1 916 pixels
      Height : 1 080 pixels
      Display aspect ratio : 16:9
      Frame rate mode : Constant
      Frame rate : 25.000 fps
      Color space : YUV
      Chroma subsampling : 4:2:0
      Bit depth : 8 bits
      Scan type : Progressive
      Bits/(Pixel*Frame) : 0.096
      Stream size : 3.05 GiB (91%)
      Language : English
      Default : Yes
      Forced : No
      Color primaries : BT.709
      Transfer characteristics : BT.709
      Matrix coefficients : BT.709
   Audio #2
      ID : 2
      Format : AC-3
      Format/Info : Audio Coding 3
      Mode extension : CM (complete main)
      Format settings, Endianness : Big
      Codec ID : A_AC3
      Duration : 1h 28mn
      Bit rate mode : Constant
      Bit rate : 384 Kbps
      Channel(s) : 6 channels
      Channel positions : Front: L C R, Side: L R, LFE
      Sampling rate : 48.0 KHz
      Bit depth : 16 bits
      Compression mode : Lossy
      Stream size : 242 MiB (7%)
      Language : Russian
      Default : Yes
      Forced : No
picpicpicpicpicpicpicpicpicpicpicpicpic
Для увеличения картинки щелкните мышкой по превью

Этот торрент недоступен для скачивания без регистрации, однако доступен по публичной magnet-ссылке (источники с публичных трекеров). Перед использованием ссылки прочтите, пожалуйста Пользовательское соглашение, а также как можно дольше оставайтесь на раздаче! Для того, чтобы скачать сам торрент-файл (который видит больше источников), а также для того, чтобы поблагодарить релизера, вам необходимо зарегистрироваться. Если регистрироваться лень - вы можете также попробовать скачать релиз по нашим партнерским ссылкам ниже.

[underverse.su].t45740.torrent
Трекер: Зарегистрирован   [ 30.10.2014 20:00 ]  

Статус: проверено (by nemos at 30.10.2014 20:00)
Поблагодарили: 1 человек
Тип торрента: публичный - доступные источники с открытых трекеров: 
Размер: 3,35 GB (занимает 0,77 DVDR, для записи нужно 1 болванка DVDR/RW)
 
 
Похожие темы
Форум Тема Автор Торрент Отв. Посл. сооб.
Наше кино [DVDRip, Low-Res HDRip, и т.д.] Беглецы (Рустам Мосафир) [2014 г., Триллер, Приключения, DVDRip] |Лицензия| viktor.r-79
8 | 0

0 | 703

69

29.10.2014 21:58


Яндекс.Метрика powered by Sphinx


В Н И М А Н И Е
Сайт не распространяет и не хранит электронные версии произведений, а лишь бесплатно и без коммерческой выгоды (не требуя взамен платы,
SMS и т.д.) предоставляет доступ к создаваемому пользователями каталогу ссылок на торрент-файлы, которые содержат только списки хеш-сумм.
Убедительная просьба с жалобами обращаться напрямую к пользователю, разместившему торрент файл.

Вверх