Loading...
Error

Час призраков 2 / 3 АМ 2 / Ti sam khuen sam 2 (Исара Нади, Кирати Накинтанон, Putipong Saisikaew) [2014, ужасы, HDRip] Dub (RUS) |Лицензия|

Статистика раздачи
Размер:  1,37 GB   |    Зарегистрирован:  2 года 1 месяц   |    Скачан:  13 раз

Полного источника не было: 1 год

Сидов:  0  |  0 KB/s  ]   Личеров:  0  |  0 KB/s  ]

* - сиды/пиры с внешних источников

   
 
Автор Сообщение

viktor.r-79 Пол:Муж

30-Окт-2014 15:38

Час призраков 2 / 3 АМ 2 / Ti sam khuen sam 2
«Время пришло»

Год выпуска: 2014
Жанр: ужасы
Выпущено: Таиланд
Продолжительность: 01:43:50
Перевод: Профессиональный (полное дублирование) |Лицензия|
Субтитры: Нет
Режиссёр:
Исара Нади, Кирати Накинтанон, Putipong Saisikaew
В ролях:
Синджай Пленгпанит, Супанарт Джитталила, Рэй МакДональд, Thawat Pornrattanaprasert, Apapattra Meesang, Hataichat Eurkittiroj, Intach Leorakwong, Jirawat Wachirasarunpat, Pongsatorn Sripinta, Patty Hokari
КИНОПОИСК
Описание:
«Третья ночь». Он был крутым парнем, который держал в страхе весь район. После его гибели, кто-то начал клеиться к его красавице жене. Какое безрассудство! Ведь он был так ревнив при жизни. На третью ночь после смерти он вернулся!
«Монастырь». Легенда гласит, что если ночью придти в заброшенную часовню рядом со школой и загадать желание у духа безголовой монахини, оно непременно сбудется. Но сходить туда можно только одному. Если условие будет нарушено, ты умрешь. Одна из учащихся решает проверить легенду.
«Дары усопшим». Два работника проводят ночь в магазинчике ритуальных услуг вместе со своим боссом. Все идет нормально, до тех пор, пока они не узнают, что их босс погиб накануне в автомобильной катастрофе. Кто же тогда этот человек в магазине?

Примечание: На первой минуте перед начальными титрами - любительское двухголосое озвучивание, т. к. фрагмент отсутствует на русской лицензии!
Качество: HDRip
Формат: AVI
Видео кодек: XviD
Аудио кодек: AC3
Видео: 720x304 (2.35:1), 23.976 fps, XviD ~1491 kbps avg
Аудио: 48 kHz, AC3 Dolby Digital, 3/2 (L,C,R,l,r) + LFE ch, ~384.00 kbps avg
D:\торрент\4as.pr1zrak07.2.2014.D.HDRip.1400MB.avi
General
Complete name : D:\торрент\4as.pr1zrak07.2.2014.D.HDRip.1400MB.avi
Format : AVI
Format/Info : Audio Video Interleave
File size : 1.37 GiB
Duration : 1h 43mn
Overall bit rate : 1 884 Kbps
Writing application : VirtualDubMod 1.5.10.3 | www.virtualdub-fr.org || (build 2550/release)
Writing library : VirtualDubMod build 2550/release
Video #0
ID : 0
Format : MPEG-4 Visual
Format profile : Advanced Simple@L5
Format settings, BVOP : 2
Format settings, QPel : No
Format settings, GMC : No warppoints
Format settings, Matrix : Default (MPEG)
Codec ID : XVID
Codec ID/Hint : XviD
Duration : 1h 43mn
Bit rate : 1 491 Kbps
Width : 720 pixels
Height : 304 pixels
Display aspect ratio : 2.35:1
Frame rate : 23.976 fps
Color space : YUV
Chroma subsampling : 4:2:0
Bit depth : 8 bits
Scan type : Progressive
Compression mode : Lossy
Bits/(Pixel*Frame) : 0.284
Stream size : 1.08 GiB (79%)
Writing library : XviD 1.2.1 (UTC 2008-12-04)
Audio #1
ID : 1
Format : AC-3
Format/Info : Audio Coding 3
Mode extension : CM (complete main)
Codec ID : 2000
Duration : 1h 43mn
Bit rate mode : Constant
Bit rate : 384 Kbps
Channel(s) : 6 channels
Channel positions : Front: L C R, Side: L R, LFE
Sampling rate : 48.0 KHz
Bit depth : 16 bits
Compression mode : Lossy
Stream size : 285 MiB (20%)
Alignment : Split accross interleaves
Interleave, duration : 42 ms (1.00 video frame)
Interleave, preload duration : 500 ms
pic pic pic pic
Для увеличения картинки щелкните мышкой по превью

Этот торрент недоступен для скачивания без регистрации, однако доступен по публичной magnet-ссылке (источники с публичных трекеров). Перед использованием ссылки прочтите, пожалуйста Пользовательское соглашение, а также как можно дольше оставайтесь на раздаче! Для того, чтобы скачать сам торрент-файл (который видит больше источников), а также для того, чтобы поблагодарить релизера, вам необходимо зарегистрироваться. Если регистрироваться лень - вы можете также попробовать скачать релиз по нашим партнерским ссылкам ниже.

[underverse.su].t45725.torrent
Трекер: Зарегистрирован   [ 30.10.2014 15:38 ]  

Статус: проверено (by Паукан at 31.10.2014 14:53)
Поблагодарили: пока никто не поблагодарил...
Тип торрента: публичный - доступные источники с открытых трекеров: 
Размер: 1,37 GB (занимает 0,31 DVDR, для записи нужно 1 болванка DVDR/RW)
 
 
Похожие темы
Форум Тема Автор Торрент Отв. Посл. сооб.
Зарубежное кино [DVDRip, Low-Res HDRip, и т.д.] Час призраков / Время призраков / 3 A.M. (Исара Нади) [2012 г., ужасы, DVDRip] RG NewCinema
0 | 0

0 | 1162

6

09.04.2013 12:16

Зарубежное кино [DVDRip, Low-Res HDRip, и т.д.] Час призраков 3D / 3 A.M. 3D (Исара Нади) [2012 г., ужасы, HDRip] VO (Хихикающий доктор) 90ytr90
7 | 0

0 | 1050

7

04.05.2013 16:22

Зарубежное кино [DVDRip, Low-Res HDRip, и т.д.] Час призраков 2 / 3 АМ 2 / Ti sam khuen sam 2 (Исара Нади, Кирати Накинтанон, Putipong Saisikaew) [2014 г., ужасы, HDRip] DVO [DeadSno & den904] Паукан
4 | 1

0 | 1093

7

15.07.2014 11:09

Зарубежное кино [HDDVDRip / BDRip / WEB-DL / HDTV 1080/720р] Час призраков 2 / Ti sam khuen sam 3D / 3 A.M. 3D (Исара Нади / Isara Nadee, Кирати Накинтанон / Kirati Nakintanon, Путипонг Саисикаев / Putipong Saisikaew) [2014 г., ужасы, BDRip 720p] Dub + DVO... 90ytr90
5 | 1

0 | 301

1

27.11.2014 16:15


Яндекс.Метрика powered by Sphinx


В Н И М А Н И Е
Сайт не распространяет и не хранит электронные версии произведений, а лишь бесплатно и без коммерческой выгоды (не требуя взамен платы,
SMS и т.д.) предоставляет доступ к создаваемому пользователями каталогу ссылок на торрент-файлы, которые содержат только списки хеш-сумм.
Убедительная просьба с жалобами обращаться напрямую к пользователю, разместившему торрент файл.

Вверх