Loading...
Error

Драйв / Drive (Николас Виндинг Рефн / Nicolas Winding Refn) [2011 г., драма, криминал, BDRip] Dub (Rus) + Original + VO (Сербин) + MVO (Ukr) HQ Underverse

Статистика раздачи
Размер:  2,17 GB   |    Зарегистрирован:  2 года 1 месяц   |    Скачан:  44 раза
Сидов:  3  |  0 KB/s  ]   Личеров:  0  |  0 KB/s  ]

* - сиды/пиры с внешних источников

   
 
Автор Сообщение

HQ Underverse 

30-Окт-2014 15:03

Драйв / Drive


Год выпуска: 2011
Жанр: драма, криминал
Режиссер: Николас Виндинг Рефн / Nicolas Winding Refn
В ролях: Райан Гослинг, Кэри Маллиган, Брайан Крэнстон, Альберт Брукс, Оскар Айзек, Кристина Хендрикс, Рон Перлман, Расс Тэмблин, Джефф Вульф, Джеймс Бибери
Сюжет фильма:
Великолепный гонщик — при свете дня он выполняет каскадерские трюки на съёмочных площадках Голливуда, а по ночам ведет рискованную игру. Но один опасный контракт — и за его жизнь назначена награда. Теперь, чтобы остаться в живых и спасти свою очаровательную соседку, он должен делать то, что умеет лучше всего — виртуозно уходить от погони…

  • Мировая премьера: 20 мая 2011
  • Российская премьера: 3 ноября 2011

/
Качество видео: BDRip [Drive 2011 US Blu-ray 1080p AVC DTS-HD MA 5.1-HDChina]

Продолжительность: 01:40:24
Формат: avi
Видео: XviD, 720x304, 2249 kbps
Аудио #1: русский, дублированный [лицензия, R5], AC3 5.1, 384 kbps
Аудио #2: английский, оригинал, AC3 5.1, 448 kbps
Аудио #3: русский, одноголосый закадровый [Сербин], AC3 5.1, 448 kbps (отдельным файлом)
Аудио #4: украинский, многоголосый закадровый [профессиональный, "Цікава ідея" на замовлення Hurtom.com], AC3 5.1, 448 kbps (отдельным файлом)
Семпл: http://multi-up.com/1009740

Релиз группы:

Код:

General
Complete name                    : D:\Video\Movies\Releases\Drive.2011.BDRip.XviD.AC3.Rus.D.Eng.O.HQ.Underverse.avi
Format                           : AVI
Format/Info                      : Audio Video Interleave
Format profile                   : OpenDML
File size                        : 2.17 GiB
Duration                         : 1h 40mn
Overall bit rate                 : 3 099 Kbps
Writing application              : VirtualDubMod 1.5.10.3 | www.virtualdub-fr.org || (build 2550/release)
Writing library                  : VirtualDubMod build 2550/release

Video
ID                               : 0
Format                           : MPEG-4 Visual
Format profile                   : Streaming Video@L1
Format settings, BVOP            : Yes
Format settings, QPel            : No
Format settings, GMC             : No warppoints
Format settings, Matrix          : Custom
Codec ID                         : XVID
Codec ID/Hint                    : XviD
Duration                         : 1h 40mn
Bit rate                         : 2 250 Kbps
Width                            : 720 pixels
Height                           : 304 pixels
Display aspect ratio             : 2.35
Frame rate                       : 23.976 fps
Resolution                       : 24 bits
Colorimetry                      : 4:2:0
Scan type                        : Progressive
Bits/(Pixel*Frame)               : 0.429
Stream size                      : 1.58 GiB (73%)
Writing library                  : XviD 64

Audio #1
ID                               : 1
Format                           : AC-3
Format/Info                      : Audio Coding 3
Codec ID                         : 2000
Duration                         : 1h 40mn
Bit rate mode                    : Constant
Bit rate                         : 384 Kbps
Channel(s)                       : 6 channels
Channel positions                : Front: L C R, Surround: L R, LFE
Sampling rate                    : 48.0 KHz
Stream size                      : 276 MiB (12%)
Alignment                        : Split accross interleaves
Interleave, duration             : 42 ms (1.00 video frame)
Interleave, preload duration     : 500 ms
Title                            : Russian Dub [R5]

Audio #2
ID                               : 2
Format                           : AC-3
Format/Info                      : Audio Coding 3
Codec ID                         : 2000
Duration                         : 1h 40mn
Bit rate mode                    : Constant
Bit rate                         : 448 Kbps
Channel(s)                       : 6 channels
Channel positions                : Front: L C R, Surround: L R, LFE
Sampling rate                    : 48.0 KHz
Stream size                      : 322 MiB (14%)
Alignment                        : Split accross interleaves
Interleave, duration             : 42 ms (1.00 video frame)
Interleave, preload duration     : 500 ms
Title                            : English

General
Complete name                    : D:\Video\Movies\Releases\Drive.2011.BDRip.XviD.AC3.Rus.D.Eng.O.HQ.Underverse.AVO.Serbin.ac3
Format                           : AC-3
Format/Info                      : Audio Coding 3
File size                        : 322 MiB
Duration                         : 1h 40mn
Overall bit rate                 : 448 Kbps

Audio
Format                           : AC-3
Format/Info                      : Audio Coding 3
Duration                         : 1h 40mn
Bit rate mode                    : Constant
Bit rate                         : 448 Kbps
Channel(s)                       : 6 channels
Channel positions                : Front: L C R, Surround: L R, LFE
Sampling rate                    : 48.0 KHz
Stream size                      : 322 MiB (100%)

General
Complete name                    : D:\Video\Movies\Releases\Drive.2011.BDRip.XviD.AC3.Rus.D.Eng.O.HQ.Underverse.Ukr.ac3
Format                           : AC-3
Format/Info                      : Audio Coding 3
File size                        : 321 MiB
Duration                         : 1h 40mn
Overall bit rate                 : 448 Kbps

Audio
Format                           : AC-3
Format/Info                      : Audio Coding 3
Duration                         : 1h 40mn
Bit rate mode                    : Constant
Bit rate                         : 448 Kbps
Channel(s)                       : 6 channels
Channel positions                : Front: L C R, Surround: L R, LFE
Sampling rate                    : 48.0 KHz
Stream size                      : 321 MiB (100%)

picpicpicpic
Для увеличения картинки щелкните мышкой по превью

Этот торрент недоступен для скачивания без регистрации, однако доступен по публичной magnet-ссылке (источники с публичных трекеров). Перед использованием ссылки прочтите, пожалуйста Пользовательское соглашение, а также как можно дольше оставайтесь на раздаче! Для того, чтобы скачать сам торрент-файл (который видит больше источников), а также для того, чтобы поблагодарить релизера, вам необходимо зарегистрироваться. Если регистрироваться лень - вы можете также попробовать скачать релиз по нашим партнерским ссылкам ниже.

[underverse.su].t45724.torrent
Трекер: Зарегистрирован   [ 31.10.2014 10:56 ]  

Статус: проверено (by Паукан at 31.10.2014 14:24)
Поблагодарили: пока никто не поблагодарил...
Тип торрента: публичный - доступные источники с открытых трекеров: 
Размер: 2,17 GB (занимает 1/2 DVDR, для записи нужно 1 болванка DVDR/RW)
 
 
Похожие темы
Форум Тема Автор Торрент Отв. Посл. сооб.
Зарубежное кино [DVDRip, Low-Res HDRip, и т.д.] Драйв / Drive (Николас Виндинг Рефн / Nicolas Winding Refn) [2011 г., триллер, драма, криминал, BDRip] Dub 90ytr90
2 | 0

0 | 1917

21

07.10.2013 16:52


Яндекс.Метрика powered by Sphinx


В Н И М А Н И Е
Сайт не распространяет и не хранит электронные версии произведений, а лишь бесплатно и без коммерческой выгоды (не требуя взамен платы,
SMS и т.д.) предоставляет доступ к создаваемому пользователями каталогу ссылок на торрент-файлы, которые содержат только списки хеш-сумм.
Убедительная просьба с жалобами обращаться напрямую к пользователю, разместившему торрент файл.

Вверх