Loading...
Error

Выпускной (Всеволод Бродский) [2014 г., Комедия, WEB-DLRip]

Статистика раздачи
Размер:  1,37 GB   |    Зарегистрирован:  2 года 1 месяц   |    Скачан:  87 раз
Сидов:  1  |  0 KB/s  ]   Личеров:  0  |  0 KB/s  ]

* - сиды/пиры с внешних источников

   
 
Автор Сообщение

viktor.r-79 Пол:Муж

29-Окт-2014 20:43

Выпускной
«Этой ночью возможно всё»

Год выпуска: 2014
Страна: Россия
Жанр: Комедия
Продолжительность: 01:32:21
Перевод: Не требуется
Режиссер:
Всеволод Бродский

В ролях:
Виктор Грудев, Кристина Исайкина, Сергей Походаев, Сергей Бурунов, Евгения Лютая, Константин Еремеев, Олеся Поташинская, Никита Павленко, Яна Енжаева, Тимофей Зайцев

Описание:
Ученики 11 «А» готовятся к Выпускному по-разному: рэперы снимают клип к альбому, главный дебошир закупает алкоголь, девственник готовится к первому сексу, а влюбленный Ромео собирается надеть обручальное кольцо своей Джульетте. Они мечтают о будущем и строят планы на жизнь без опеки родителей. «Эту ночь ты не забудешь никогда!» — однозначный настрой одноклассников. Но у родителей свои взгляды на праздник -«вечеринка которую вы ждали 10 лет» становится настоящей войной поколений. Школа превращается в место боя — сегодня будут расставлены все точки над «и».
Качество: WEB-DLRip
Формат: AVI
Видео кодек: XviD
Аудио кодек: AC3
Видео: 720x400 (16:9), 25 fps, XviD build 50 ~1725 kbps avg, 0.24 bit/pixel
Аудио: 48 kHz, AC3 Dolby Digital, 3/2 (L,C,R,l,r) + LFE ch, ~384 kbps
D:\торрент\!V1puskn0y.2014.O.WEB-DLRip.1400MB.avi
General
Complete name : D:\торрент\!V1puskn0y.2014.O.WEB-DLRip.1400MB.avi
Format : AVI
Format/Info : Audio Video Interleave
File size : 1.37 GiB
Duration : 1h 32mn
Overall bit rate : 2 119 Kbps
Writing application : VirtualDubMod 1.5.10.2 (build 2540/release)
Writing library : VirtualDubMod build 2540/release
Video #0
ID : 0
Format : MPEG-4 Visual
Format profile : Advanced Simple@L5
Format settings, BVOP : 2
Format settings, QPel : No
Format settings, GMC : No warppoints
Format settings, Matrix : Default (MPEG)
Codec ID : XVID
Codec ID/Hint : XviD
Duration : 1h 32mn
Bit rate : 1 725 Kbps
Width : 720 pixels
Height : 400 pixels
Display aspect ratio : 16:9
Frame rate : 25.000 fps
Color space : YUV
Chroma subsampling : 4:2:0
Bit depth : 8 bits
Scan type : Progressive
Compression mode : Lossy
Bits/(Pixel*Frame) : 0.240
Stream size : 1.11 GiB (81%)
Writing library : XviD 1.2.1 (UTC 2008-12-04)
Audio #1
ID : 1
Format : AC-3
Format/Info : Audio Coding 3
Mode extension : CM (complete main)
Codec ID : 2000
Duration : 1h 32mn
Bit rate mode : Constant
Bit rate : 384 Kbps
Channel(s) : 6 channels
Channel positions : Front: L C R, Side: L R, LFE
Sampling rate : 48.0 KHz
Bit depth : 16 bits
Compression mode : Lossy
Stream size : 254 MiB (18%)
Alignment : Split accross interleaves
Interleave, duration : 40 ms (1.00 video frame)
Interleave, preload duration : 500 ms
pic pic pic
Для увеличения картинки щелкните мышкой по превью

Этот торрент недоступен для скачивания без регистрации, однако доступен по публичной magnet-ссылке (источники с публичных трекеров). Перед использованием ссылки прочтите, пожалуйста Пользовательское соглашение, а также как можно дольше оставайтесь на раздаче! Для того, чтобы скачать сам торрент-файл (который видит больше источников), а также для того, чтобы поблагодарить релизера, вам необходимо зарегистрироваться. Если регистрироваться лень - вы можете также попробовать скачать релиз по нашим партнерским ссылкам ниже.

[underverse.su].t45701.torrent
Трекер: Зарегистрирован   [ 29.10.2014 20:43 ]  

Статус: проверено (by Ведьмочка at 30.10.2014 02:39)
Поблагодарили: 3 человека
Тип торрента: публичный - доступные источники с открытых трекеров: 
Размер: 1,37 GB (занимает 0,31 DVDR, для записи нужно 1 болванка DVDR/RW)
 
 
Похожие темы
Форум Тема Автор Торрент Отв. Посл. сооб.
Зарубежное кино [DVDRip, Low-Res HDRip, и т.д.] Выпускной / Prom (Джо Нуссбаум) [2011 г., драма, комедия, DVDRip-Лицензия] Indostan
1 | 0

1 | 563

9

04.08.2011 11:51

Наше кино [HDDVDRip / BDRip / WEB-DL / HDTV 1080/720р] Выпускной (Всеволод Бродский) [2014 г., Комедия, WEB-DL 720p] viktor.r-79
1 | 0

0 | 735

80

29.10.2014 21:25


Яндекс.Метрика powered by Sphinx


В Н И М А Н И Е
Сайт не распространяет и не хранит электронные версии произведений, а лишь бесплатно и без коммерческой выгоды (не требуя взамен платы,
SMS и т.д.) предоставляет доступ к создаваемому пользователями каталогу ссылок на торрент-файлы, которые содержат только списки хеш-сумм.
Убедительная просьба с жалобами обращаться напрямую к пользователю, разместившему торрент файл.

Вверх