Loading...
Error

Самолеты: Огонь и вода / Planes: Fire and Rescue (Роберт Ганнавей / Roberts Gannaway) [2014, мультфильм, комедия, приключения, BDRip-AVC] Dub (RUS) + Original (Eng) + Subs (Rus, Eng)

Статистика раздачи
Размер:  2,16 GB   |    Зарегистрирован:  2 года   |    Скачан:  27 раз

Полного источника не было: 4 месяца 9 дней

Сидов:  0  |  0 KB/s  ]   Личеров:  0  |  0 KB/s  ]

* - сиды/пиры с внешних источников

   
 
Автор Сообщение

viktor.r-79 Пол:Муж

28-Окт-2014 21:10

Самолеты: Огонь и вода / Planes: Fire and Rescue
«Герои всегда там, где жарко»

Год выпуска: 2014
Страна: США / Walt Disney Pictures, DisneyToon Studios, Prana Studios
Жанр: Мультфильм, комедия, приключения, семейный
Продолжительность: 01:23:38
Перевод: Профессиональный (дублированный) [Blu-Ray]
Субтитры: Русские (полные + форс.), английские (Full + SDH + SDH-Colored)
Навигация по главам: Есть
Режиссер:
Роберт Ганнавей / Robert Gannaway

Роли дублировали:
Константин Крюков, Сергей Чихачев, Анна Ардова, Даниил Эльдаров

Описание:
Самолетик Дасти — который стал уже легендой воздушных гонок вскоре узнает, что его двигатель сильно повреждён, и он никогда не может больше участвовать в скоростных воздушных гонках. Дасти ищет себе новое занятие и знакомится с мужественной пожарно-спасательной командой, которой руководит ветеран авиации вертолёт по имени Ренждер. Узнав насколько тяжела и опасна работа пожарной авиации Дасти поймёт, что такое настоящий героизм и самоотдача и сам захочет стать спасателем.
Качество: BDRip-AVC
Формат: MKV
Видео кодек: х.264
Аудио кодек: AC-3
Видео: 1132x474 (2,40:1), 23,976 fps, 2800 kbps, 0.218 bit/pixel
Аудио#1: 48 kHz, AC3 Dolby Digital, 3/2 (L,C,R,l,r) ch, 448.00 kbps | RUS
Аудио#2: 48 kHz, AC3 Dolby Digital, 3/2 (L,C,R,l,r) ch, 448.00 kbps | ENG


Уникальный идентификатор : 247454919605747435606779603209100577864 (0xBA2A157E1AF6619EB14382E953C9CC48)
Полное имя : D:\торрент\Samolyoty.Ogon'.i.Voda.2014.DUAL.BDRip.x264.-HELLYWOOD.mkv
Формат : Matroska
Версия формата : Version 4 / Version 2
Размер файла : 2,16 Гбайт
Продолжительность : 1 ч. 23 м.
Общий поток : 3697 Кбит/сек
Название фильма : Planes: Fire and Rescue (2014) - HELLYWOOD
Дата кодирования : UTC 2014-11-11 09:23:48
Программа кодирования : mkvmerge v5.9.0 ('On The Loose') built on Dec 15 2012 16:39:58
Библиотека кодирования : libebml v1.3.0 + libmatroska v1.4.0

Видео
Идентификатор : 1
Формат : AVC
Формат/Информация : Advanced Video Codec
Профиль формата : High@L4.1
Параметр CABAC формата : Да
Параметр ReFrames формата : 10 кадров
Идентификатор кодека : V_MPEG4/ISO/AVC
Продолжительность : 1 ч. 23 м.
Битрейт : 2800 Кбит/сек
Ширина : 1132 пикселя
Высота : 474 пикселя
Соотношение сторон : 2,40:1
Частота кадров : 23,976 кадра/сек
Цветовое пространство : YUV
Субдискретизация насыщенности : 4:2:0
Битовая глубина : 8 бит
Тип развёртки : Прогрессивная
Бит/(Пиксели*Кадры) : 0.218
Размер потока : 1,59 Гбайт (74%)
Заголовок : potroks
Библиотека кодирования : x264 core 130 r2273 b3065e6
Настройки программы : cabac=1 / ref=10 / deblock=1:-1:-1 / analyse=0x3:0x133 / me=umh / subme=11 / psy=1 / psy_rd=1.06:0.03 / mixed_ref=1 / me_range=48 / chroma_me=1 / trellis=2 / 8x8dct=1 / cqm=0 / deadzone=21,11 / fast_pskip=0 / chroma_qp_offset=-3 / threads=9 / lookahead_threads=6 / sliced_threads=0 / nr=0 / decimate=0 / interlaced=0 / bluray_compat=0 / constrained_intra=0 / bframes=11 / b_pyramid=2 / b_adapt=2 / b_bias=0 / direct=3 / weightb=1 / open_gop=0 / weightp=2 / keyint=250 / keyint_min=23 / scenecut=40 / intra_refresh=0 / rc_lookahead=60 / rc=2pass / mbtree=0 / bitrate=2800 / ratetol=1.0 / qcomp=0.70 / qpmin=0 / qpmax=69 / qpstep=4 / cplxblur=20.0 / qblur=0.5 / vbv_maxrate=50000 / vbv_bufsize=62500 / nal_hrd=none / ip_ratio=1.35 / pb_ratio=1.25 / aq=1:0.70
Язык : English
Default : Да
Forced : Нет

Аудио #1
Идентификатор : 2
Формат : AC-3
Формат/Информация : Audio Coding 3
Расширение режима : CM (complete main)
Идентификатор кодека : A_AC3
Продолжительность : 1 ч. 23 м.
Вид битрейта : Постоянный
Битрейт : 448 Кбит/сек
Каналы : 6 каналов
Расположение каналов : Front: L C R, Side: L R, LFE
Частота : 48,0 КГц
Битовая глубина : 16 бит
Метод сжатия : С потерями
Размер потока : 268 Мбайт (12%)
Заголовок : Dub | DD 5.1 @ 448 kbps - Blu-Ray
Язык : Russian
Default : Да
Forced : Да

Аудио #2
Идентификатор : 3
Формат : AC-3
Формат/Информация : Audio Coding 3
Расширение режима : CM (complete main)
Идентификатор кодека : A_AC3
Продолжительность : 1 ч. 23 м.
Вид битрейта : Постоянный
Битрейт : 448 Кбит/сек
Каналы : 6 каналов
Расположение каналов : Front: L C R, Side: L R, LFE
Частота : 48,0 КГц
Битовая глубина : 16 бит
Метод сжатия : С потерями
Размер потока : 268 Мбайт (12%)
Заголовок : Original | DD 5.1 @ 448 kbps
Язык : English
Default : Нет
Forced : Нет

Текст #1
Идентификатор : 4
Формат : UTF-8
Идентификатор кодека : S_TEXT/UTF8
Идентификатор кодека/Информация : UTF-8 Plain Text
Заголовок : форс.
Язык : Russian
Default : Да
Forced : Да

Текст #2
Идентификатор : 5
Формат : UTF-8
Идентификатор кодека : S_TEXT/UTF8
Идентификатор кодека/Информация : UTF-8 Plain Text
Заголовок : полные
Язык : Russian
Default : Нет
Forced : Нет

Текст #3
Идентификатор : 6
Формат : UTF-8
Идентификатор кодека : S_TEXT/UTF8
Идентификатор кодека/Информация : UTF-8 Plain Text
Заголовок : Full
Язык : English
Default : Нет
Forced : Нет

Текст #4
Идентификатор : 7
Формат : UTF-8
Идентификатор кодека : S_TEXT/UTF8
Идентификатор кодека/Информация : UTF-8 Plain Text
Заголовок : SDH
Язык : English
Default : Нет
Forced : Нет

Текст #5
Идентификатор : 8
Формат : UTF-8
Идентификатор кодека : S_TEXT/UTF8
Идентификатор кодека/Информация : UTF-8 Plain Text
Заголовок : SDH-Colored
Язык : English
Default : Нет
Forced : Нет

Меню
00:00:00.000 : en:(01)00:00:00:000
00:03:27.790 : en:(02)00:03:27:790
00:07:48.593 : en:(03)00:07:48:593
00:12:36.005 : en:(04)00:12:36:005
00:17:38.849 : en:(05)00:17:38:849
00:22:55.165 : en:(06)00:22:55:165
00:27:45.288 : en:(07)00:27:45:288
00:32:37.205 : en:(08)00:32:37:205
00:35:24.789 : en:(09)00:35:24:789
00:38:31.017 : en:(10)00:38:31:017
00:41:38.287 : en:(11)00:41:38:287
00:47:21.046 : en:(12)00:47:21:046
00:55:00.714 : en:(13)00:55:00:714
00:57:29.028 : en:(14)00:57:29:028
01:00:33.880 : en:(15)01:00:33:880
01:05:22.710 : en:(16)01:05:22:710
01:09:07.685 : en:(17)01:09:07:685
01:13:55.264 : en:(18)01:13:55:264
01:23:38.263 : en:(19)01:23:38:263
pic pic pic pic pic
Для увеличения картинки щелкните мышкой по превью

Автор рипа: potroks

Этот торрент недоступен для скачивания без регистрации, однако доступен по публичной magnet-ссылке (источники с публичных трекеров). Перед использованием ссылки прочтите, пожалуйста Пользовательское соглашение, а также как можно дольше оставайтесь на раздаче! Для того, чтобы скачать сам торрент-файл (который видит больше источников), а также для того, чтобы поблагодарить релизера, вам необходимо зарегистрироваться. Если регистрироваться лень - вы можете также попробовать скачать релиз по нашим партнерским ссылкам ниже.

[underverse.su].t46132.torrent
Трекер: Зарегистрирован   [ 11.11.2014 13:29 ]  

Статус: проверено (by nemos at 14.11.2014 19:50)
Поблагодарили: пока никто не поблагодарил...
Тип торрента: публичный - доступные источники с открытых трекеров: 
Размер: 2,16 GB (занимает 0,49 DVDR, для записи нужно 1 болванка DVDR/RW)
 
 
Похожие темы
Форум Тема Автор Торрент Отв. Посл. сооб.
Зарубежные мультфильмы Самолеты: Огонь и вода / Planes: Fire and Rescue (Роберт Ганнавей / Roberts Gannaway) [2014 г., мультфильм, комедия, приключения, семейный, BDRip] Dub + Original (Eng) + Sub (Rus, Eng) 90ytr90
10 | 0

0 | 615

20

19.11.2014 17:55

Зарубежные мультфильмы Самолеты: Огонь и вода / Planes: Fire and Rescue (Роберт Ганнавей / Roberts Gannaway) [2014 г., мультфильм, комедия, приключения, семейный, HDRip] Dub 90ytr90
7 | 0

0 | 461

5

19.11.2014 18:05

Зарубежные мультфильмы Самолеты: Огонь и вода / Planes: Fire and Rescue (Роберт Ганнавей / Roberts Gannaway) [2014 г., мультфильм, комедия, приключения, семейный, HDRip-AVC] Dub + Original (Eng) + Sub (Rus, Eng) 90ytr90
2 | 0

0 | 475

9

19.11.2014 18:42

Зарубежные мультфильмы Самолеты: Огонь и вода / Planes: Fire and Rescue (Роберт Ганнавей / Roberts Gannaway) [2014 г., мультфильм, комедия, приключения, семейный, BDRip-AVC] Dub + Sub (Rus, Eng) 90ytr90
3 | 0

0 | 410

5

19.11.2014 18:50

Мультфильмы [HDDVDRip / BDRip / WEB-DL / HDTV 1080/720р] Самолеты: Огонь и вода / Planes: Fire and Rescue (Роберт Ганнавей / Roberts Gannaway) [2014 г., мультфильм, комедия, приключения, семейный, BDRip 720p] Dub + Original (Eng) + Sub (Rus, Eng) 90ytr90
1 | 0

0 | 601

15

19.11.2014 18:14

Мультфильмы [HDDVDRip / BDRip / WEB-DL / HDTV 1080/720р] Самолеты: Огонь и вода / Planes: Fire and Rescue (Роберт Ганнавей / Roberts Gannaway) [2014 г., мультфильм, комедия, приключения, семейный, BDRip 1080p] Dub + Original (Eng) + Sub (Rus, Eng) 90ytr90
3 | 0

0 | 674

14

19.11.2014 18:23


Яндекс.Метрика powered by Sphinx


В Н И М А Н И Е
Сайт не распространяет и не хранит электронные версии произведений, а лишь бесплатно и без коммерческой выгоды (не требуя взамен платы,
SMS и т.д.) предоставляет доступ к создаваемому пользователями каталогу ссылок на торрент-файлы, которые содержат только списки хеш-сумм.
Убедительная просьба с жалобами обращаться напрямую к пользователю, разместившему торрент файл.

Вверх