Loading...
Error

Поворот не туда: Антология / Wrong Turn: Antology (Роб Шмидт, Джо Линч, Деклан О’Брайэн , Валерий Милев) [2003- 2014гг., Ужасы, Триллер, Криминал, BDRip-AVC] Dub (RUS, R5) + Original (ENG) + Subs (RUS, ENG)

Статистика раздачи
Размер:  13,77 GB   |    Зарегистрирован:  2 года 1 месяц   |    Скачан:  21 раз

Полного источника не было: 20 дней

Сидов:  0  |  0 KB/s  ]   Личеров:  0  |  0 KB/s  ]

* - сиды/пиры с внешних источников

   
 
Автор Сообщение

viktor.r-79 Пол:Муж

28-Окт-2014 20:05

Название: Поворот не туда: Антология
Оригинальное название: Wrong Turn: Antology
Год выхода: 2003, 2007, 2009, 2011, 2012, 2014 г.,
Жанр: Ужасы, триллер, криминал
Продолжительность: 01:24:14 | 01:36:57 | 01:32:02 | 01:33:20 | 01:30:48 | 01:30:30

Поворот не туда / Wrong Turn
«Он последний в вашей жизни...»

Год выпуска: 2003
Производство: США, Канада, Германия / Summit Entertainment, Constantin Film Produktion GmbH, Stan Winston Studio...
Жанр: Ужасы, триллер, криминал
Продолжительность: 01:24:14
Перевод: Профессиональный (полное дублирование) [лицензия R5]
Субтитры: Русские, английские
Режиссер:
Роб Шмидт /Rob Schmidt
В ролях:
Десмонд Харрингтон, Элиза Душку, Эммануэль Шрики, Джереми Систо, Кевин Зегерс, Линди Бут, Джулиан Ричингс, Гэрри Роббинс, Тед Кларк, Ивонн Годри

О фильме:
Затерявшись в лесах Западной Вирджинии в результате рокового стечения обстоятельств, группа молодых людей пытается добраться до ближайшего телефона. Но вместо телефона им суждено найти дом в горах, увешанный страшным оружием и отвратительными трофеями… Кто, или что живет в этом доме? Молодые люди начинают понимать, что все их злоключения – способ загнать дичь в ловушку, где они – это дичь, а зловещие охотники – обитатели дома…
Качество: BDRip-AVC
Формат: MKV
Видео: x.264, 1056x572 (16:9), 23,976 fps, 2 815 Kbps, 0.194 bit/pixel
Аудио#1: 48 kHz, AC3 Dolby Digital, 3/2 (L,C,R,l,r) + LFE ch, 448 Kbps | RUS
Аудио#2: 48 kHz, AC3 Dolby Digital, 3/2 (L,C,R,l,r) + LFE ch, 448 kbps | ENG
D:\торрент\Povorot.ne.Tuda.Antology.[2003-2014]-HELLYWOOD\Povorot.ne.Tuda.2003.DUAL.BDRip.x264.-HELLYWOOD.mkv
General
Unique ID : 202784412177826456586896947807335299825 (0x988EDB6F48F42216867D700DE8313AF1)
Complete name : D:\торрент\Povorot.ne.Tuda.Antology.[2003-2014]-HELLYWOOD\Povorot.ne.Tuda.2003.DUAL.BDRip.x264.-HELLYWOOD.mkv
Format : Matroska
Format version : Version 4 / Version 2
File size : 2.18 GiB
Duration : 1h 24mn
Overall bit rate : 3 708 Kbps
Movie name : Wrong Turn (2003) - HELLYWOOD
Encoded date : UTC 2014-08-11 04:26:06
Writing application : mkvmerge v5.9.0 ('On The Loose') built on Dec 15 2012 16:39:58
Writing library : libebml v1.3.0 + libmatroska v1.4.0
Video #1
ID : 1
Format : AVC
Format/Info : Advanced Video Codec
Format profile : High@L4.1
Format settings, CABAC : Yes
Format settings, ReFrames : 10 frames
Codec ID : V_MPEG4/ISO/AVC
Duration : 1h 24mn
Bit rate : 2 815 Kbps
Width : 1 056 pixels
Height : 572 pixels
Display aspect ratio : 16:9
Frame rate : 23.976 fps
Color space : YUV
Chroma subsampling : 4:2:0
Bit depth : 8 bits
Scan type : Progressive
Bits/(Pixel*Frame) : 0.194
Stream size : 1.61 GiB (74%)
Title : potroks
Writing library : x264 core 130 r2273 b3065e6
Encoding settings : cabac=1 / ref=10 / deblock=1:-3:-3 / analyse=0x3:0x133 / me=umh / subme=11 / psy=1 / psy_rd=0.94:0.00 / mixed_ref=1 / me_range=48 / chroma_me=1 / trellis=2 / 8x8dct=1 / cqm=0 / deadzone=21,11 / fast_pskip=0 / chroma_qp_offset=-2 / threads=9 / lookahead_threads=2 / sliced_threads=0 / nr=0 / decimate=0 / interlaced=0 / bluray_compat=0 / constrained_intra=0 / bframes=11 / b_pyramid=2 / b_adapt=2 / b_bias=0 / direct=3 / weightb=1 / open_gop=0 / weightp=2 / keyint=250 / keyint_min=23 / scenecut=40 / intra_refresh=0 / rc_lookahead=60 / rc=2pass / mbtree=0 / bitrate=2815 / ratetol=1.0 / qcomp=0.70 / qpmin=0 / qpmax=69 / qpstep=4 / cplxblur=20.0 / qblur=0.5 / vbv_maxrate=50000 / vbv_bufsize=62500 / nal_hrd=none / ip_ratio=1.35 / pb_ratio=1.25 / aq=1:0.90
Language : English
Audio #2
ID : 2
Format : AC-3
Format/Info : Audio Coding 3
Mode extension : CM (complete main)
Codec ID : A_AC3
Duration : 1h 24mn
Bit rate mode : Constant
Bit rate : 448 Kbps
Channel(s) : 6 channels
Channel positions : Front: L C R, Side: L R, LFE
Sampling rate : 48.0 KHz
Bit depth : 16 bits
Compression mode : Lossy
Stream size : 270 MiB (12%)
Title : Dub | DD 5.1 @ 448 kbps - R5
Language : Russian
Audio #3
ID : 3
Format : AC-3
Format/Info : Audio Coding 3
Mode extension : CM (complete main)
Codec ID : A_AC3
Duration : 1h 24mn
Bit rate mode : Constant
Bit rate : 448 Kbps
Channel(s) : 6 channels
Channel positions : Front: L C R, Side: L R, LFE
Sampling rate : 48.0 KHz
Bit depth : 16 bits
Compression mode : Lossy
Stream size : 270 MiB (12%)
Title : Original | DD 5.1 @ 448 kbps
Language : English
Text #4
ID : 4
Format : UTF-8
Codec ID : S_TEXT/UTF8
Codec ID/Info : UTF-8 Plain Text
Language : Russian
Text #5
ID : 5
Format : UTF-8
Codec ID : S_TEXT/UTF8
Codec ID/Info : UTF-8 Plain Text
Language : English
pic pic pic pic
Для увеличения картинки щелкните мышкой по превью

Поворот не туда 2: Тупик / Wrong Turn 2: Dead End
«Ужас вернулся в лес»

Год выпуска: 2007
Производство: США / 20th Century Fox Film Corporation, Constantin Film, Summit Entertainment...
Жанр: Ужасы, триллер, криминал
Продолжительность: 01:36:57
Перевод: Профессиональный (полное дублирование) [лицензия R5]
Субтитры: Русские, английские
Режиссер:
Джо Линч / Joe Lynch
В ролях:
Эрика Лирсен, Генри Роллинз, Тексас Бэттл, Алекса Палладино, Даниелла Алонсо, Стив Браун, Мэттью Карри Холмс, Кристал Лоу, Кимберли Колдуэлл, Уэйн Робсон

О фильме:
В печально известном по событиям первого фильма лесу, местная телекомпания снимает реалити-шоу в духе «Последнего героя». Участникам проекта предстоит вести образ жизни первобытных племен без современных средств связи... на радость обитающим неподалеку каннибалам.

Качество: BDRip-AVC
Формат: MKV
Видео: x.264, 972x548 (16:9), 23,976 fps, 3529 Кbps, 0.276 bit/pixel
Аудио#1: 48 kHz, AC3 Dolby Digital, 3/2 (L,C,R,l,r) + LFE ch, 384.00 kbps | RUS
Аудио#2: 48 kHz, AC3 Dolby Digital, 3/2 (L,C,R,l,r) + LFE ch, 384.00 kbps | ENG
\Povorot.ne.Tuda.Antology.[2003-2014]-HELLYWOOD\Povorot.ne.Tuda.2.2007.DUAL.BDRip.x264.-HELLYWOOD.mkv
Format : Matroska
Format version : Version 4 / Version 2
File size : 2.91 GiB
Duration : 1h 36mn
Overall bit rate : 4 295 Kbps
Movie name : Wrong Turn 5: Bloodlines (2012) - HELLYWOOD
Encoded date : UTC 2014-08-13 15:47:40
Writing application : mkvmerge v5.9.0 ('On The Loose') built on Dec 15 2012 16:39:58
Writing library : libebml v1.3.0 + libmatroska v1.4.0

Video
ID : 1
Format : AVC
Format/Info : Advanced Video Codec
Format profile : High@L4.1
Format settings, CABAC : Yes
Format settings, ReFrames : 10 frames
Codec ID : V_MPEG4/ISO/AVC
Duration : 1h 36mn
Bit rate : 3 529 Kbps
Width : 972 pixels
Height : 548 pixels
Display aspect ratio : 16:9
Frame rate : 23.976 fps
Color space : YUV
Chroma subsampling : 4:2:0
Bit depth : 8 bits
Scan type : Progressive
Bits/(Pixel*Frame) : 0.276
Stream size : 2.33 GiB (80%)
Title : potroks
Writing library : x264 core 130 r2273 b3065e6
Encoding settings : cabac=1 / ref=10 / deblock=1:-3:-3 / analyse=0x3:0x133 / me=umh / subme=11 / psy=1 / psy_rd=0.92:0.00 / mixed_ref=1 / me_range=48 / chroma_me=1 / trellis=2 / 8x8dct=1 / cqm=0 / deadzone=21,11 / fast_pskip=0 / chroma_qp_offset=-2 / threads=9 / lookahead_threads=2 / sliced_threads=0 / nr=0 / decimate=0 / interlaced=0 / bluray_compat=0 / constrained_intra=0 / bframes=11 / b_pyramid=2 / b_adapt=2 / b_bias=0 / direct=3 / weightb=1 / open_gop=0 / weightp=2 / keyint=250 / keyint_min=23 / scenecut=40 / intra_refresh=0 / rc_lookahead=60 / rc=2pass / mbtree=0 / bitrate=3529 / ratetol=1.0 / qcomp=0.70 / qpmin=0 / qpmax=69 / qpstep=4 / cplxblur=20.0 / qblur=0.5 / vbv_maxrate=50000 / vbv_bufsize=62500 / nal_hrd=none / ip_ratio=1.35 / pb_ratio=1.25 / aq=1:0.90
Language : English

Audio #1
ID : 2
Format : AC-3
Format/Info : Audio Coding 3
Mode extension : CM (complete main)
Codec ID : A_AC3
Duration : 1h 36mn
Bit rate mode : Constant
Bit rate : 384 Kbps
Channel(s) : 6 channels
Channel positions : Front: L C R, Side: L R, LFE
Sampling rate : 48.0 KHz
Bit depth : 16 bits
Compression mode : Lossy
Stream size : 266 MiB (9%)
Title : Dub | DD 5.1 @ 384 kbps - R5
Language : Russian

Audio #2
ID : 3
Format : AC-3
Format/Info : Audio Coding 3
Mode extension : CM (complete main)
Codec ID : A_AC3
Duration : 1h 36mn
Bit rate mode : Constant
Bit rate : 384 Kbps
Channel(s) : 6 channels
Channel positions : Front: L C R, Side: L R, LFE
Sampling rate : 48.0 KHz
Bit depth : 16 bits
Compression mode : Lossy
Stream size : 266 MiB (9%)
Title : Original | DD 5.1 @ 384 kbps
Language : English

Text #1
ID : 4
Format : UTF-8
Codec ID : S_TEXT/UTF8
Codec ID/Info : UTF-8 Plain Text
Language : Russian

Text #2
ID : 5
Format : UTF-8
Codec ID : S_TEXT/UTF8
Codec ID/Info : UTF-8 Plain Text
Language : English

Menu
00:00:00.000 : en:00:00:00.000
00:02:17.596 : en:00:02:17.596
00:07:25.362 : en:00:07:25.362
00:13:15.128 : en:00:13:15.128
00:19:35.674 : en:00:19:35.674
00:23:37.333 : en:00:23:37.333
00:28:28.582 : en:00:28:28.582
00:35:05.228 : en:00:35:05.228
00:41:07.924 : en:00:41:07.924
00:45:59.548 : en:00:45:59.548
00:51:11.068 : en:00:51:11.068
00:54:56.210 : en:00:54:56.210
01:01:51.041 : en:01:01:51.041
01:06:54.344 : en:01:06:54.344
01:10:37.859 : en:01:10:37.859
01:15:48.502 : en:01:15:48.502
01:17:59.800 : en:01:17:59.800
01:20:42.379 : en:01:20:42.379
01:26:00.030 : en:01:26:00.030
01:33:55.088 : en:01:33:55.088
pic pic pic pic
Для увеличения картинки щелкните мышкой по превью


Поворот не туда 3 / Wrong Turn 3: Left for Dead
«Вы не увидите то, что вас убьет»

Год выпуска: 2009
Производство: США, Германия / 20th Century Fox Home Entertainment, Summit Entertainment, Constantin Film, Wrongturn 3 Productions
Жанр: Ужасы, триллер, криминал
Продолжительность: 01:32:02
Перевод: Профессиональный (многоголосый закадровый) [лицензия R5]
Субтитры: Русские, английские
Режиссер:
Деклан О’Брайэн / Declan O'Brien

В ролях:
Том Фредерик, Джанет Монтгомери, Тэмер Хассан, Джил Колирин, Том МакКэй, Джэйк Каррен, Чуки Венис, Майк Страуб, Эмма Клиффорд

О фильме:
Группа людей оказывается загнанной в ловушку, в лесах Западной Вирджинии, где они вынуждены бороться за свои жизни против группы порочных, и ужасно уродливых каннибалов.
Качество: BDRip-AVC
Формат: MKV
Видео: x.264, 1024x576 (16:9), 23,976 fps, 2623 Кbps, 0.185 bit/pixel
Аудио#1: 48 kHz, AC3 Dolby Digital, 3/2 (L,C,R,l,r) + LFE ch, 384.00 kbps | RUS
Аудио#2: 48 kHz, AC3 Dolby Digital, 3/2 (L,C,R,l,r) + LFE ch, 384.00 kbps | ENG
\Povorot.ne.Tuda.Antology.[2003-2014]-HELLYWOOD\Povorot.ne.Tuda.3.2009.DUAL.BDRip.x264.-HELLYWOOD.mkv
Format : Matroska
Format version : Version 4 / Version 2
File size : 2.18 GiB
Duration : 1h 32mn
Overall bit rate : 3 389 Kbps
Movie name : Wrong Turn 3: Left for Dead (2009) - HELLYWOOD
Encoded date : UTC 2014-08-12 15:09:44
Writing application : mkvmerge v5.9.0 ('On The Loose') built on Dec 15 2012 16:39:58
Writing library : libebml v1.3.0 + libmatroska v1.4.0

Video
ID : 1
Format : AVC
Format/Info : Advanced Video Codec
Format profile : High@L4.1
Format settings, CABAC : Yes
Format settings, ReFrames : 10 frames
Codec ID : V_MPEG4/ISO/AVC
Duration : 1h 32mn
Bit rate : 2 623 Kbps
Width : 1 024 pixels
Height : 576 pixels
Display aspect ratio : 16:9
Frame rate : 23.976 fps
Color space : YUV
Chroma subsampling : 4:2:0
Bit depth : 8 bits
Scan type : Progressive
Bits/(Pixel*Frame) : 0.185
Stream size : 1.64 GiB (75%)
Title : potroks
Writing library : x264 core 130 r2273 b3065e6
Encoding settings : cabac=1 / ref=10 / deblock=1:-3:-3 / analyse=0x3:0x133 / me=umh / subme=11 / psy=1 / psy_rd=0.90:0.00 / mixed_ref=1 / me_range=48 / chroma_me=1 / trellis=2 / 8x8dct=1 / cqm=0 / deadzone=21,11 / fast_pskip=0 / chroma_qp_offset=-2 / threads=9 / lookahead_threads=2 / sliced_threads=0 / nr=0 / decimate=0 / interlaced=0 / bluray_compat=0 / constrained_intra=0 / bframes=11 / b_pyramid=2 / b_adapt=2 / b_bias=0 / direct=3 / weightb=1 / open_gop=0 / weightp=2 / keyint=250 / keyint_min=23 / scenecut=40 / intra_refresh=0 / rc_lookahead=60 / rc=2pass / mbtree=0 / bitrate=2623 / ratetol=1.0 / qcomp=0.70 / qpmin=0 / qpmax=69 / qpstep=4 / cplxblur=20.0 / qblur=0.5 / vbv_maxrate=50000 / vbv_bufsize=62500 / nal_hrd=none / ip_ratio=1.35 / pb_ratio=1.25 / aq=1:1.00
Language : English

Audio #1
ID : 2
Format : AC-3
Format/Info : Audio Coding 3
Mode extension : CM (complete main)
Codec ID : A_AC3
Duration : 1h 32mn
Bit rate mode : Constant
Bit rate : 384 Kbps
Channel(s) : 6 channels
Channel positions : Front: L C R, Side: L R, LFE
Sampling rate : 48.0 KHz
Bit depth : 16 bits
Compression mode : Lossy
Stream size : 253 MiB (11%)
Title : MVO | DD 5.1 @ 384 kbps - R5
Language : Russian

Audio #2
ID : 3
Format : AC-3
Format/Info : Audio Coding 3
Mode extension : CM (complete main)
Codec ID : A_AC3
Duration : 1h 32mn
Bit rate mode : Constant
Bit rate : 384 Kbps
Channel(s) : 6 channels
Channel positions : Front: L C R, Side: L R, LFE
Sampling rate : 48.0 KHz
Bit depth : 16 bits
Compression mode : Lossy
Stream size : 253 MiB (11%)
Title : Original | DD 5.1 @ 384 kbps
Language : English

Text #1
ID : 4
Format : UTF-8
Codec ID : S_TEXT/UTF8
Codec ID/Info : UTF-8 Plain Text
Title : R5
Language : Russian

Text #2
ID : 5
Format : UTF-8
Codec ID : S_TEXT/UTF8
Codec ID/Info : UTF-8 Plain Text
Language : English

Menu
00:00:00.000 : en:Chapter 1
00:02:57.010 : en:Chapter 2
00:06:51.703 : en:Chapter 3
00:12:04.265 : en:Chapter 4
00:18:38.701 : en:Chapter 5
00:25:49.923 : en:Chapter 6
00:31:45.445 : en:Chapter 7
00:37:47.015 : en:Chapter 8
00:44:26.956 : en:Chapter 9
00:52:17.134 : en:Chapter 10
00:59:18.263 : en:Chapter 11
01:03:15.208 : en:Chapter 12
01:05:48.027 : en:Chapter 13
01:10:08.704 : en:Chapter 14
01:17:32.606 : en:Chapter 15
01:28:20.629 : en:Chapter 16
01:32:02.100 : en:Chapter 17
pic pic pic pic
Для увеличения картинки щелкните мышкой по превью


Поворот не туда 4: Кровавое начало / Wrong Turn 4: Bloody Beginnings

Год выпуска: 2011
Производство: США, Германия / 20th Century Fox Home Entertainment, Constantin Film Produktion, Summit Entertainment
Жанр: Ужасы, триллер, криминал
Продолжительность: 01:33:21
Перевод: Профессиональный (многоголосый закадровый) [лицензия R5]
Субтитры: Русские, английские
Режиссер:
Деклан О’Брайэн / Declan O'Brien
В ролях:
Дин Армстронг, Блейн Кипурда, Теника Дэвис, Дэйв Хармс, Кристен Харрис, Скотт Джонсон, Саманта Кендрик, Арни Макферсон, Дженнифер Пудавик, Дэн Скин

О фильме:
Группа друзей отправляется на снегоходах на зимнюю прогулку. Во время метели они заблудились и свернули не туда. Встреча с мутантами-каннибалами стала для героев большой неожиданностью…
Качество: BDRip-AVC
Формат: MKV
Видео: x.264, 1024x576 (16:9), 23,976 fps, 2575 Кbps, 0.182 bit/pixel
Аудио#1: 48 kHz, AC3 Dolby Digital, 3/2 (L,C,R,l,r) + LFE ch, 384.00 kbps | RUS
Аудио#2: 48 kHz, AC3 Dolby Digital, 3/2 (L,C,R,l,r) + LFE ch, 384.00 kbps | ENG
\Povorot.ne.Tuda.4.2011.DUAL.BDRip.x264.-HELLYWOOD.mkv
Format : Matroska
Format version : Version 4 / Version 2
File size : 2.18 GiB
Duration : 1h 33mn
Overall bit rate : 3 340 Kbps
Movie name : Wrong Turn 4 (2011) - HELLYWOOD
Encoded date : UTC 2014-08-12 15:25:25
Writing application : mkvmerge v5.9.0 ('On The Loose') built on Dec 15 2012 16:39:58
Writing library : libebml v1.3.0 + libmatroska v1.4.0

Video
ID : 1
Format : AVC
Format/Info : Advanced Video Codec
Format profile : High@L4.1
Format settings, CABAC : Yes
Format settings, ReFrames : 12 frames
Codec ID : V_MPEG4/ISO/AVC
Duration : 1h 33mn
Bit rate : 2 575 Kbps
Width : 1 024 pixels
Height : 576 pixels
Display aspect ratio : 16:9
Frame rate : 23.976 fps
Color space : YUV
Chroma subsampling : 4:2:0
Bit depth : 8 bits
Scan type : Progressive
Bits/(Pixel*Frame) : 0.182
Stream size : 1.63 GiB (75%)
Title : potroks
Writing library : x264 core 130 r2273 b3065e6
Encoding settings : cabac=1 / ref=12 / deblock=1:-2:-2 / analyse=0x3:0x133 / me=umh / subme=11 / psy=1 / psy_rd=1.00:0.04 / mixed_ref=1 / me_range=48 / chroma_me=1 / trellis=2 / 8x8dct=1 / cqm=0 / deadzone=21,11 / fast_pskip=0 / chroma_qp_offset=-3 / threads=9 / lookahead_threads=2 / sliced_threads=0 / nr=0 / decimate=0 / interlaced=0 / bluray_compat=0 / constrained_intra=0 / bframes=13 / b_pyramid=2 / b_adapt=2 / b_bias=0 / direct=3 / weightb=1 / open_gop=0 / weightp=2 / keyint=250 / keyint_min=23 / scenecut=40 / intra_refresh=0 / rc_lookahead=60 / rc=2pass / mbtree=0 / bitrate=2575 / ratetol=1.0 / qcomp=0.70 / qpmin=0 / qpmax=69 / qpstep=4 / cplxblur=20.0 / qblur=0.5 / vbv_maxrate=50000 / vbv_bufsize=62500 / nal_hrd=none / ip_ratio=1.35 / pb_ratio=1.25 / aq=1:0.80
Language : English

Audio #1
ID : 2
Format : AC-3
Format/Info : Audio Coding 3
Mode extension : CM (complete main)
Codec ID : A_AC3
Duration : 1h 33mn
Bit rate mode : Constant
Bit rate : 384 Kbps
Channel(s) : 6 channels
Channel positions : Front: L C R, Side: L R, LFE
Sampling rate : 48.0 KHz
Bit depth : 16 bits
Compression mode : Lossy
Stream size : 256 MiB (11%)
Title : MVO | DD 5.1 @ 384 kbps - R5
Language : Russian

Audio #2
ID : 3
Format : AC-3
Format/Info : Audio Coding 3
Mode extension : CM (complete main)
Codec ID : A_AC3
Duration : 1h 33mn
Bit rate mode : Constant
Bit rate : 384 Kbps
Channel(s) : 6 channels
Channel positions : Front: L C R, Side: L R, LFE
Sampling rate : 48.0 KHz
Bit depth : 16 bits
Compression mode : Lossy
Stream size : 256 MiB (11%)
Title : Original | DD 5.1 @ 384 kbps
Language : English

Text #1
ID : 4
Format : UTF-8
Codec ID : S_TEXT/UTF8
Codec ID/Info : UTF-8 Plain Text
Title : перевод RussianGuy27
Language : Russian

Text #2
ID : 5
Format : UTF-8
Codec ID : S_TEXT/UTF8
Codec ID/Info : UTF-8 Plain Text
Language : English

Menu
00:00:00.000 : en:00:00:00.000
00:06:21.756 : en:00:06:21.756
00:09:13.928 : en:00:09:13.928
00:11:10.295 : en:00:11:10.295
00:17:52.947 : en:00:17:52.947
00:23:18.689 : en:00:23:18.689
00:26:27.336 : en:00:26:27.336
00:33:11.948 : en:00:33:11.948
00:36:33.650 : en:00:36:33.650
00:40:08.448 : en:00:40:08.448
00:45:19.216 : en:00:45:19.216
00:47:11.495 : en:00:47:11.495
00:49:34.805 : en:00:49:34.805
00:53:55.774 : en:00:53:55.774
00:55:52.974 : en:00:55:52.974
01:00:55.485 : en:01:00:55.485
01:04:33.119 : en:01:04:33.119
01:07:03.519 : en:01:07:03.519
01:10:21.175 : en:01:10:21.175
01:13:02.336 : en:01:13:02.336
01:17:04.828 : en:01:17:04.828
01:22:08.131 : en:01:22:08.131
01:27:02.842 : en:01:27:02.842
01:30:17.912 : en:01:30:17.912
pic pic pic pic
Для увеличения картинки щелкните мышкой по превью


Поворот не туда 5: Кровное родство / Wrong Turn 5: Bloodlines
«Страх поглотит тебя»

Год выпуска: 2012
Производство: США / США / 20th Century Fox Home Entertainment, Constantin Film Produktion GmbH, Summit Entertainment
Жанр: Ужасы, триллер, криминал
Продолжительность: 01:30:48
Перевод: Профессиональный (многоголосый закадровый) [лицензия R5]
Субтитры: Русские, английские (Full, SDH, SDH-Colored)
Режиссер:
Деклан О’Брайэн / Declan O'Brien
В ролях:
Камилла Арфведсон, Даг Брэдли, Оливер, Хоар Роксанна, МакКи Эми, Леннокс, Дункан Уисби, Радослав Парванов, Джордж Карлуковский

О фильме:
Маленький городок в Западной Вирджинии проводит ежегодный фестиваль «Горный человек», посвящённый Хэллоуину. Туда направляется группа студентов колледжа, однако они не подозревают, что шумная костюмированная вечеринка с музыкой и выпивкой обернётся для них кровавым кошмаром — на фестиваль направляется семья горных каннибалов.
Качество: BDRip-AVC
Формат: MKV
Видео: x.264, 1024x576 (16:9), 23,976 fps, 2669 Кbps, 0.189 bit/pixel
Аудио#1: 48 kHz, AC3 Dolby Digital, 3/2 (L,C,R,l,r) + LFE ch, 384.00 kbps | RUS
Аудио#2: 48 kHz, AC3 Dolby Digital, 3/2 (L,C,R,l,r) + LFE ch, 384.00 kbps | ENG
\Povorot.ne.Tuda.Antology.[2003-2014]-HELLYWOOD\Povorot.ne.Tuda.5.2012.DUAL.BDRip.x264.-HELLYWOOD.mkv
Format : Matroska
Format version : Version 4 / Version 2
File size : 2.18 GiB
Duration : 1h 30mn
Overall bit rate : 3 434 Kbps
Movie name : Wrong Turn 5: Bloodlines (2012) - HELLYWOOD
Encoded date : UTC 2014-08-14 05:32:37
Writing application : mkvmerge v5.9.0 ('On The Loose') built on Dec 15 2012 16:39:58
Writing library : libebml v1.3.0 + libmatroska v1.4.0

Video
ID : 1
Format : AVC
Format/Info : Advanced Video Codec
Format profile : High@L4.1
Format settings, CABAC : Yes
Format settings, ReFrames : 12 frames
Codec ID : V_MPEG4/ISO/AVC
Duration : 1h 30mn
Bit rate : 2 669 Kbps
Width : 1 024 pixels
Height : 576 pixels
Display aspect ratio : 16:9
Frame rate : 23.976 fps
Color space : YUV
Chroma subsampling : 4:2:0
Bit depth : 8 bits
Scan type : Progressive
Bits/(Pixel*Frame) : 0.189
Stream size : 1.65 GiB (76%)
Title : potroks
Writing library : x264 core 130 r2273 b3065e6
Encoding settings : cabac=1 / ref=12 / deblock=1:-2:-2 / analyse=0x3:0x133 / me=umh / subme=11 / psy=1 / psy_rd=1.00:0.04 / mixed_ref=1 / me_range=48 / chroma_me=1 / trellis=2 / 8x8dct=1 / cqm=0 / deadzone=21,11 / fast_pskip=0 / chroma_qp_offset=-3 / threads=9 / lookahead_threads=2 / sliced_threads=0 / nr=0 / decimate=0 / interlaced=0 / bluray_compat=0 / constrained_intra=0 / bframes=13 / b_pyramid=2 / b_adapt=2 / b_bias=0 / direct=3 / weightb=1 / open_gop=0 / weightp=2 / keyint=250 / keyint_min=23 / scenecut=40 / intra_refresh=0 / rc_lookahead=60 / rc=2pass / mbtree=0 / bitrate=2669 / ratetol=1.0 / qcomp=0.70 / qpmin=0 / qpmax=69 / qpstep=4 / cplxblur=20.0 / qblur=0.5 / vbv_maxrate=50000 / vbv_bufsize=62500 / nal_hrd=none / ip_ratio=1.35 / pb_ratio=1.25 / aq=1:0.80
Language : English

Audio #1
ID : 2
Format : AC-3
Format/Info : Audio Coding 3
Mode extension : CM (complete main)
Codec ID : A_AC3
Duration : 1h 30mn
Bit rate mode : Constant
Bit rate : 384 Kbps
Channel(s) : 6 channels
Channel positions : Front: L C R, Side: L R, LFE
Sampling rate : 48.0 KHz
Bit depth : 16 bits
Compression mode : Lossy
Stream size : 249 MiB (11%)
Title : MVO | DD 5.1 @ 384 kbps - R5
Language : Russian

Audio #2
ID : 3
Format : AC-3
Format/Info : Audio Coding 3
Mode extension : CM (complete main)
Codec ID : A_AC3
Duration : 1h 30mn
Bit rate mode : Constant
Bit rate : 384 Kbps
Channel(s) : 6 channels
Channel positions : Front: L C R, Side: L R, LFE
Sampling rate : 48.0 KHz
Bit depth : 16 bits
Compression mode : Lossy
Stream size : 249 MiB (11%)
Title : Original | DD 5.1 @ 384 kbps
Language : English

Text #1
ID : 4
Format : UTF-8
Codec ID : S_TEXT/UTF8
Codec ID/Info : UTF-8 Plain Text
Language : Russian

Text #2
ID : 5
Format : UTF-8
Codec ID : S_TEXT/UTF8
Codec ID/Info : UTF-8 Plain Text
Language : English

Text #3
ID : 6
Format : UTF-8
Codec ID : S_TEXT/UTF8
Codec ID/Info : UTF-8 Plain Text
Title : Full
Language : English

Text #4
ID : 7
Format : UTF-8
Codec ID : S_TEXT/UTF8
Codec ID/Info : UTF-8 Plain Text
Title : SDH
Language : English

Text #5
ID : 8
Format : UTF-8
Codec ID : S_TEXT/UTF8
Codec ID/Info : UTF-8 Plain Text
Title : SDH-Colored
Language : English

Menu
00:00:00.000 : en:
00:03:35.006 : en:
00:06:41.109 : en:
00:09:45.293 : en:
00:13:38.526 : en:
00:16:56.473 : en:
00:18:38.909 : en:
00:22:32.893 : en:
00:26:03.436 : en:
00:29:27.223 : en:
00:34:49.837 : en:
00:39:19.440 : en:
00:44:08.645 : en:
00:48:06.216 : en:
00:53:11.813 : en:
00:59:35.196 : en:
01:03:13.122 : en:
01:06:56.303 : en:
01:09:44.638 : en:
01:12:32.639 : en:
01:17:43.700 : en:
01:19:31.767 : en:
01:20:46.842 : en:
01:26:21.801 : en:
pic pic pic pic
Для увеличения картинки щелкните мышкой по превью


Поворот не туда 6: Последний курорт / Wrong Turn 6: Last Resort

Год выпуска: 2014
Производство: США
Жанр: Ужасы
Продолжительность: 01:30:30
Перевод: Профессиональный (многоголосый закадровый) [лицензия R5]
Субтитры: Русские, английские (SDH)
Навигация по главам: Есть
Режиссер:
Валерий Милев / Valeri Milev

В ролях:
Сэди Кац, Anthony Ilott, Акилла Золл, Ролло Скиннер, Билли Эшворт, Роксанна Паллетт, Крис Джарвис, Асен Асенов, Гарри Белчер, Риз Койро

О фильме:
В поисках внезапного и таинственного наследства, Дэнни и его друзья оказываются в Хобб Спрингс, на заброшенном курорте в горах Западной Вирджинии. Вскоре Дэнни узнает, что его родственники, которых он никогда не знал, вели довольно странный образ жизни, основывающийся на каннибализме. Дэнни придется выбирать между друзьями и родственниками.
Качество: BDRip-AVC
Формат: MKV
Видео: x.264, 1024x576 (16:9), 23,976 fps, 2553 Кbps, 0.181 bit/pixel
Аудио#1: 48 kHz, AC3 Dolby Digital, 3/2 (L,C,R,l,r) + LFE ch, 384.00 kbps | RUS
Аудио#2: 48 kHz, AC3 Dolby Digital, 3/2 (L,C,R,l,r) + LFE ch, 448.00 kbps | ENG
\Povorot.ne.Tuda.Antology.[2003-2014]-HELLYWOOD\Povorot.ne.Tuda.6.2014.DUAL.BDRip.x264.-HELLYWOOD.mkv
Format : Matroska
Format version : Version 4 / Version 2
File size : 2.14 GiB
Duration : 1h 30mn
Overall bit rate : 3 387 Kbps
Movie name : Wrong Turn 6: Last Resort (2014) - HELLYWOOD
Encoded date : UTC 2014-10-28 17:03:57
Writing application : mkvmerge v5.9.0 ('On The Loose') built on Dec 15 2012 16:39:58
Writing library : libebml v1.3.0 + libmatroska v1.4.0

Video
ID : 1
Format : AVC
Format/Info : Advanced Video Codec
Format profile : High@L4.1
Format settings, CABAC : Yes
Format settings, ReFrames : 10 frames
Codec ID : V_MPEG4/ISO/AVC
Duration : 1h 30mn
Bit rate : 2 553 Kbps
Width : 1 024 pixels
Height : 576 pixels
Display aspect ratio : 16:9
Frame rate : 23.976 fps
Color space : YUV
Chroma subsampling : 4:2:0
Bit depth : 8 bits
Scan type : Progressive
Bits/(Pixel*Frame) : 0.181
Stream size : 1.57 GiB (73%)
Title : potroks
Writing library : x264 core 130 r2273 b3065e6
Encoding settings : cabac=1 / ref=10 / deblock=1:-2:-2 / analyse=0x3:0x133 / me=umh / subme=11 / psy=1 / psy_rd=1.05:0.05 / mixed_ref=1 / me_range=48 / chroma_me=1 / trellis=2 / 8x8dct=1 / cqm=0 / deadzone=21,11 / fast_pskip=0 / chroma_qp_offset=-3 / threads=9 / lookahead_threads=6 / sliced_threads=0 / nr=0 / decimate=0 / interlaced=0 / bluray_compat=0 / constrained_intra=0 / bframes=11 / b_pyramid=2 / b_adapt=2 / b_bias=0 / direct=3 / weightb=1 / open_gop=0 / weightp=2 / keyint=250 / keyint_min=23 / scenecut=40 / intra_refresh=0 / rc_lookahead=60 / rc=2pass / mbtree=0 / bitrate=2553 / ratetol=1.0 / qcomp=0.70 / qpmin=0 / qpmax=69 / qpstep=4 / cplxblur=20.0 / qblur=0.5 / vbv_maxrate=50000 / vbv_bufsize=62500 / nal_hrd=none / ip_ratio=1.35 / pb_ratio=1.25 / aq=1:0.70
Language : English

Audio #1
ID : 2
Format : AC-3
Format/Info : Audio Coding 3
Mode extension : CM (complete main)
Codec ID : A_AC3
Duration : 1h 30mn
Bit rate mode : Constant
Bit rate : 384 Kbps
Channel(s) : 6 channels
Channel positions : Front: L C R, Side: L R, LFE
Sampling rate : 48.0 KHz
Bit depth : 16 bits
Compression mode : Lossy
Stream size : 249 MiB (11%)
Title : MVO | DD 5.1 @ 384 kbps - R5
Language : Russian

Audio #2
ID : 3
Format : AC-3
Format/Info : Audio Coding 3
Mode extension : CM (complete main)
Codec ID : A_AC3
Duration : 1h 30mn
Bit rate mode : Constant
Bit rate : 448 Kbps
Channel(s) : 6 channels
Channel positions : Front: L C R, Side: L R, LFE
Sampling rate : 48.0 KHz
Bit depth : 16 bits
Compression mode : Lossy
Stream size : 290 MiB (13%)
Title : Original | DD 5.1 @ 448 kbps
Language : English

Text #1
ID : 4
Format : UTF-8
Codec ID : S_TEXT/UTF8
Codec ID/Info : UTF-8 Plain Text
Language : Russian

Text #2
ID : 5
Format : UTF-8
Codec ID : S_TEXT/UTF8
Codec ID/Info : UTF-8 Plain Text
Title : SDH
Language : English

Menu
00:00:00.000 : en:(01)00:00:00:000
00:04:51.666 : en:(02)00:04:51:666
00:08:46.567 : en:(03)00:08:46:567
00:12:18.195 : en:(04)00:12:18:195
00:13:59.839 : en:(05)00:13:59:839
00:15:56.163 : en:(06)00:15:56:163
00:17:37.848 : en:(07)00:17:37:848
00:20:10.334 : en:(08)00:20:10:334
00:23:33.245 : en:(09)00:23:33:245
00:27:01.161 : en:(10)00:27:01:161
00:29:46.868 : en:(11)00:29:46:868
00:34:01.289 : en:(12)00:34:01:289
00:36:03.911 : en:(13)00:36:03:911
00:41:20.102 : en:(14)00:41:20:102
00:43:54.089 : en:(15)00:43:54:089
00:47:40.232 : en:(16)00:47:40:232
00:53:11.271 : en:(17)00:53:11:271
00:56:45.026 : en:(18)00:56:45:026
01:00:17.280 : en:(19)01:00:17:280
01:05:47.276 : en:(20)01:05:47:276
01:07:31.464 : en:(21)01:07:31:464
01:09:44.346 : en:(22)01:09:44:346
01:12:59.750 : en:(23)01:12:59:750
01:15:09.087 : en:(24)01:15:09:087
01:17:32.147 : en:(25)01:17:32:147
01:20:38.458 : en:(26)01:20:38:458
01:23:17.993 : en:(27)01:23:17:993
01:26:34.189 : en:(28)01:26:34:189
01:30:30.174 : en:(29)01:30:30:174
pic pic pic pic
Для увеличения картинки щелкните мышкой по превью


Релиз от:
Автор рипа: potroks

Этот торрент недоступен для скачивания без регистрации, однако доступен по публичной magnet-ссылке (источники с публичных трекеров). Перед использованием ссылки прочтите, пожалуйста Пользовательское соглашение, а также как можно дольше оставайтесь на раздаче! Для того, чтобы скачать сам торрент-файл (который видит больше источников), а также для того, чтобы поблагодарить релизера, вам необходимо зарегистрироваться. Если регистрироваться лень - вы можете также попробовать скачать релиз по нашим партнерским ссылкам ниже.

[underverse.su].t45660.torrent
Трекер: Зарегистрирован   [ 28.10.2014 20:14 ]  

Статус: проверено (by Ведьмочка at 29.10.2014 01:38)
Поблагодарили: 2 человека
Тип торрента: публичный - доступные источники с открытых трекеров: 
Размер: 13,77 GB (занимает 3,14 DVDR, для записи нужно 4 болванки DVDR/RW)
 
 
Похожие темы
Форум Тема Автор Торрент Отв. Посл. сооб.
Зарубежное кино [DVDRip, Low-Res HDRip, и т.д.] Поворот не туда 5 / Wrong Turn 5 (Деклан О’Брайэн) [2012 г., ужасы, триллер, DVDRip] VO Garnett
1 | 0

2 | 1517

15

27.10.2012 01:47

Зарубежное кино [DVDRip, Low-Res HDRip, и т.д.] Поворот не туда 5 / Wrong Turn 5 (Деклан О’Брайэн) [2012 г., ужасы, триллер, HDRip] MVO 90ytr90
5 | 1

0 | 1306

21

01.12.2012 13:59

Зарубежное кино [DVDRip, Low-Res HDRip, и т.д.] Поворот не туда 5 / Wrong Turn 5 (Деклан О’Брайэн) [2012 г., ужасы, триллер, HDRip] MVO 90ytr90
0 | 0

0 | 1156

7

06.12.2012 20:38

Зарубежное кино [DVDRip, Low-Res HDRip, и т.д.] Поворот не туда 6: Последний курорт / Wrong Turn 6: Last Resort (Валерий Милев) [2014 г., Ужасы, HDRip] MVO (RUS, Официальный) UNRATED Ведьмочка
6 | 0

0 | 829

26

20.10.2014 09:03

Зарубежное кино [DVDRip, Low-Res HDRip, и т.д.] Поворот не туда 6: Последний курорт / Wrong Turn 6: Last Resort (Валерий Милев) [2014 г., Ужасы, BDRip-AVC] MVO (RUS, IVI) + Original (ENG) + Subs (RUS, ENG) UNRATED Ведьмочка
2 | 0

1 | 679

14

21.10.2014 14:23

Зарубежное кино [DVDRip, Low-Res HDRip, и т.д.] Поворот не туда 6: Последний курорт / Wrong Turn 6: Last Resort (Валерий Милев) [2014 г., Ужасы, HDRip] MVO (RUS, Лицензия) UNRATED Ведьмочка
6 | 0

0 | 431

9

27.10.2014 23:01

Зарубежное кино [DVDRip, Low-Res HDRip, и т.д.] Поворот не туда 6: Последний курорт / Wrong Turn 6: Last Resort (Валерий Милев) [2014 г., Ужасы, BDRip-AVC] MVO (RUS, Лицензия) + Original (ENG) + Subs (RUS, ENG) UNRATED Ведьмочка
1 | 0

0 | 691

11

01.11.2014 03:53

Зарубежное кино [HDDVDRip / BDRip / WEB-DL / HDTV 1080/720р] Поворот не туда 6: Последний курорт / Wrong Turn 6: Last Resort (Валерий Милев) [2014 г., Ужасы, BDRip 720p] MVO (RUS, Официальный) + Original (ENG) UNRATED Ведьмочка
0 | 0

0 | 660

6

20.10.2014 08:58

Зарубежное кино [HDDVDRip / BDRip / WEB-DL / HDTV 1080/720р] Поворот не туда 6: Последний курорт / Wrong Turn 6: Last Resort (Валерий Милев) [2014 г., Ужасы, BDRip 1080p] MVO (RUS, Официальный) + Original (ENG) + Subs (RUS, ENG) UNRATED Ведьмочка
0 | 0

0 | 649

8

21.10.2014 05:10

Зарубежное кино [HDDVDRip / BDRip / WEB-DL / HDTV 1080/720р] Поворот не туда 6: Последний курорт / Wrong Turn 6: Last Resort (Валерий Милев) [2014 г., Ужасы, BDRip 720p] MVO (RUS, Официальный) UNRATED Ведьмочка
2 | 1

0 | 757

10

22.10.2014 22:33



Последний раз редактировалось: viktor.r-79 (30.10.2014 22:44), всего редактировалось 20 раз(а)

viktor.r-79 Пол:Муж

28-Окт-2014 20:35

медио инфо добавлено

Gerix Пол:Муж

11-Апр-2016 17:07

Посмотрим, хотя часть из этих фильмов уже видел.

Яндекс.Метрика powered by Sphinx


В Н И М А Н И Е
Сайт не распространяет и не хранит электронные версии произведений, а лишь бесплатно и без коммерческой выгоды (не требуя взамен платы,
SMS и т.д.) предоставляет доступ к создаваемому пользователями каталогу ссылок на торрент-файлы, которые содержат только списки хеш-сумм.
Убедительная просьба с жалобами обращаться напрямую к пользователю, разместившему торрент файл.

Вверх