Loading...
Error

Самый опасный человек / A Most Wanted Man (Антон Корбейн / Anton Corbijn) [2014, триллер, HDRip] Dub (RUS) |iTunes Russia|

Статистика раздачи
Размер:  2,05 GB   |    Зарегистрирован:  2 года 1 месяц   |    Скачан:  61 раз
Сидов:  1  |  0 KB/s  ]   Личеров:  0  |  0 KB/s  ]

* - сиды/пиры с внешних источников

   
 
Автор Сообщение

viktor.r-79 Пол:Муж

28-Окт-2014 13:58

Самый опасный человек / A Most Wanted Man
«Каждая война начинается со страха. Каждое предательство начинается с доверия»

Год выпуска: 2014
Жанр: триллер
Выпущено: Великобритания, США, Германия
Продолжительность: 02:02:23
Перевод: Профессиональный (полное дублирование) |iTunes|
Режиссёр:
Антон Корбейн / Anton Corbijn
В ролях:
Григорий Добрыгин, Филип Сеймур Хоффман, Рэйчел МакАдамс, Хомаюн Эршади, Мехди Дехби, Нил Малик Абдулла, Нина Хосс, Даниэль Брюль, Вики Крипс, Костя Улльман, Франц Хартвиг

Описание:
Каждая война начинается со страха. Каждое предательство начинается с доверия. Глава секретного подразделения разведки получает задание найти опасного международного беглеца Иссу Карпова, которого из симпатии укрывает молодая девушка-адвокат. Когда в погоню вступают разведки других стран, начинается большая шпионская игра, в которой любой может оказаться наживкой или акулой. А национальная безопасность нередко зависит от простых человеческих чувств.
Качество: HDRip
Формат: AVI
Видео кодек: XviD
Аудио кодек: AC3
Видео: 720x304 (2.37:1), 23.976 fps, XviD ~2008 kbps avg
Аудио: 48 kHz, AC3 Dolby Digital, 3/2 (L,C,R,l,r) + LFE ch, ~384.00 kbps avg
General
Complete name : D:\торрент\Самый опасный человек.2014.D.HDRip.2100MB.avi
Format : AVI
Format/Info : Audio Video Interleave
Format profile : OpenDML
File size : 2.05 GiB
Duration : 2h 2mn
Overall bit rate : 2 403 Kbps
Writing application : VirtualDubMod 1.5.10.2 (build 2542/release)
Writing library : VirtualDubMod build 2542/release

Video
ID : 0
Format : MPEG-4 Visual
Format profile : Advanced Simple@L5
Format settings, BVOP : 2
Format settings, QPel : No
Format settings, GMC : No warppoints
Format settings, Matrix : Default (MPEG)
Codec ID : XVID
Codec ID/Hint : XviD
Duration : 2h 2mn
Bit rate : 2 008 Kbps
Width : 720 pixels
Height : 304 pixels
Display aspect ratio : 2.35:1
Frame rate : 23.976 fps
Color space : YUV
Chroma subsampling : 4:2:0
Bit depth : 8 bits
Scan type : Progressive
Compression mode : Lossy
Bits/(Pixel*Frame) : 0.383
Stream size : 1.72 GiB (84%)
Writing library : XviD 1.2.1 (UTC 2008-12-04)

Audio
ID : 1
Format : AC-3
Format/Info : Audio Coding 3
Mode extension : CM (complete main)
Codec ID : 2000
Duration : 2h 2mn
Bit rate mode : Constant
Bit rate : 384 Kbps
Channel(s) : 6 channels
Channel positions : Front: L C R, Side: L R, LFE
Sampling rate : 48.0 KHz
Bit depth : 16 bits
Compression mode : Lossy
Stream size : 336 MiB (16%)
Alignment : Split accross interleaves
Interleave, duration : 42 ms (1.00 video frame)
Interleave, preload duration : 500 ms
pic pic pic
Для увеличения картинки щелкните мышкой по превью

Этот торрент недоступен для скачивания без регистрации, однако доступен по публичной magnet-ссылке (источники с публичных трекеров). Перед использованием ссылки прочтите, пожалуйста Пользовательское соглашение, а также как можно дольше оставайтесь на раздаче! Для того, чтобы скачать сам торрент-файл (который видит больше источников), а также для того, чтобы поблагодарить релизера, вам необходимо зарегистрироваться. Если регистрироваться лень - вы можете также попробовать скачать релиз по нашим партнерским ссылкам ниже.

[underverse.su].t45605.torrent
Трекер: Зарегистрирован   [ 28.10.2014 13:58 ]  

Статус: T временная (by Паукан at 28.10.2014 14:47)
Поблагодарили: 2 человека
Тип торрента: публичный - доступные источники с открытых трекеров: 
Размер: 2,05 GB (занимает 0,47 DVDR, для записи нужно 1 болванка DVDR/RW)
 
 
Похожие темы
Форум Тема Автор Торрент Отв. Посл. сооб.
Зарубежное кино [DVDRip, Low-Res HDRip, и т.д.] Самый опасный человек / A Most Wanted Man (Антон Корбейн / Anton Corbijn) [2014 г., триллер, HDRip] Dub 90ytr90
0 | 0

0 | 768

26

26.11.2014 13:57

Зарубежное кино [DVDRip, Low-Res HDRip, и т.д.] Самый опасный человек / A Most Wanted Man (Антон Корбейн / Anton Corbijn) [2014 г., триллер, BDRip-AVC] Dub + Original (Eng) + Sub (Eng) 90ytr90
5 | 0

0 | 564

5

29.11.2014 11:11

Зарубежное кино [DVDRip, Low-Res HDRip, и т.д.] Самый опасный человек / A Most Wanted Man (Антон Корбейн / Anton Corbijn) [2014 г., триллер, BDRip-AVC] Dub + Original (Eng) + Sub (Eng) 90ytr90
32 | 1

0 | 723

10

29.11.2014 11:17

Зарубежное кино [DVDRip, Low-Res HDRip, и т.д.] Самый опасный человек / A Most Wanted Man (Антон Корбейн / Anton Corbijn) [2014 г., триллер, HDRip] Dub 90ytr90
1 | 0

0 | 602

13

29.11.2014 11:21

Зарубежное кино [DVDRip, Low-Res HDRip, и т.д.] Самый опасный человек / A Most Wanted Man (Антон Корбейн / Anton Corbijn) [2014 г., триллер, BDRip-AVC] Dub + Sub (Eng) 90ytr90
2 | 0

0 | 558

12

29.11.2014 16:22

Зарубежное кино [DVDRip, Low-Res HDRip, и т.д.] Самый опасный человек / A Most Wanted Man (Антон Корбейн / Anton Corbijn) [2014 г., триллер, BDRip-AVC] Dub + Original (Eng) + Sub (Eng) 90ytr90
1 | 0

0 | 708

31

29.11.2014 16:29

T Зарубежное кино [HDDVDRip / BDRip / WEB-DL / HDTV 1080/720р] Самый опасный человек / A Most Wanted Man (Антон Корбейн / Anton Corbijn) [2014 г., триллер, BDRip 1080p] Dub (iTunes) + Original (Eng) + Sub (Eng) 90ytr90
8 | 1

0 | 382

10

26.11.2014 14:22

Зарубежное кино [HDDVDRip / BDRip / WEB-DL / HDTV 1080/720р] Самый опасный человек / A Most Wanted Man (Антон Корбейн / Anton Corbijn) [2014 г., триллер, BDRip 720p] Dub + Original (Eng) + Sub (Eng) 90ytr90
4 | 0

0 | 551

6

28.11.2014 20:25

Зарубежное кино [HDDVDRip / BDRip / WEB-DL / HDTV 1080/720р] Самый опасный человек / A Most Wanted Man (Антон Корбейн / Anton Corbijn) [2014 г., триллер, BDRip 1080p] Dub + Original (Eng) + Sub (Eng) 90ytr90
3 | 0

0 | 624

13

28.11.2014 20:33


Яндекс.Метрика powered by Sphinx


В Н И М А Н И Е
Сайт не распространяет и не хранит электронные версии произведений, а лишь бесплатно и без коммерческой выгоды (не требуя взамен платы,
SMS и т.д.) предоставляет доступ к создаваемому пользователями каталогу ссылок на торрент-файлы, которые содержат только списки хеш-сумм.
Убедительная просьба с жалобами обращаться напрямую к пользователю, разместившему торрент файл.

Вверх