Loading...
Error

Ходячие мертвецы / The Walking Dead (5 сезон: 1-5 серии из 16) ( Эрнест Р. Дикерсон, Гай Ферленд, Гвинет Хордер-Пэйтон) [2014 г., ужасы, триллер, драма, WEB-DL 720p] MVO

Статистика раздачи
Размер:  4,76 GB   |    Зарегистрирован:  2 года   |    Скачан:  7 раз

Полного источника не было: 1 год 5 месяцев

Сидов:  0  |  0 KB/s  ]   Личеров:  0  |  0 KB/s  ]

* - сиды/пиры с внешних источников

   
 
Автор Сообщение

viktor.r-79 Пол:Муж

27-Окт-2014 23:46

Ходячие мертвецы / The Walking Dead

Год выпуска: 2014
Жанр: ужасы, триллер, драма,
Страна: США
Режиссер: Эрнест Р. Дикерсон, Гай Ферленд, Гвинет Хордер-Пэйтон
В ролях:
Эндрю Линкольн, Скотт Уилсон, Данай Джекесай Гурира, Дэвид Моррисси, Стивен Юн, Лорен Коэн, Чендлер Риггз, Норман Ридус, Мелисса Сюзанн МакБрайд, Эмили Кинни, Чад Коулмэн, Сонеква Мартин
Сюжет фильма:
Четвертый сезон "Ходячих Мертвецов" закончился на том, что Рик и его люди оказались в контейнере, в руках превосходящих их числом и оружием обитателей Терминуса. Пятый сезон начинается через некоторое время там же. Далее, в истории переплетаются настоящие мотивы людей из Терминуса с хрупкой надеждой на лекарство в Вашингтоне, судьбой затерявшихся членов группы и местных жителей, новых конфликтов и новых преград к сохранению группы и выживанию.



01. No Sanctuary
02. Strangers
03. Four Walls and a Roof
04. Slabtown
05. Self Help

Качество видео: WEB-DL 720p
Формат: MPEG-4

Продолжительность: 5x ~ 00:43:00

Видео: AVC, 1280x720, 3000 kbps
Аудио: русский, многоголосый закадровый [профессиональный], AC3 2.0, 192 kbps
Релиз группы:
picpicpic
Для увеличения картинки щелкните мышкой по превью

General
Complete name : D:\торрент\Ходячие мертвецы (сезон 5) mp4\The.Walking.Dead.s05e01.WEBDL.720p.*другой трекер*.mp4
Format : MPEG-4
Format profile : Base Media
Codec ID : isom
File size : 997 MiB
Duration : 43mn 44s
Overall bit rate : 3 187 Kbps
Encoded date : UTC 2014-10-13 18:55:49
Tagged date : UTC 2014-10-13 18:55:49
Writing application : Lavf54.63.104

Video
ID : 1
Format : AVC
Format/Info : Advanced Video Codec
Format profile : Main@L3.1
Format settings, CABAC : Yes
Format settings, ReFrames : 1 frame
Codec ID : avc1
Codec ID/Info : Advanced Video Coding
Duration : 43mn 44s
Bit rate : 3 000 Kbps
Width : 1 280 pixels
Height : 720 pixels
Display aspect ratio : 16:9
Frame rate mode : Constant
Frame rate : 23.976 fps
Color space : YUV
Chroma subsampling : 4:2:0
Bit depth : 8 bits
Scan type : Progressive
Bits/(Pixel*Frame) : 0.136
Stream size : 936 MiB (94%)
Writing library : x264 core 129
Encoding settings : cabac=1 / ref=1 / deblock=1:0:0 / analyse=0x1:0x131 / me=dia / subme=2 / psy=1 / psy_rd=1.00:0.00 / mixed_ref=0 / me_range=16 / chroma_me=1 / trellis=0 / 8x8dct=0 / cqm=0 / deadzone=21,11 / fast_pskip=1 / chroma_qp_offset=0 / threads=6 / lookahead_threads=1 / sliced_threads=0 / nr=0 / decimate=1 / interlaced=0 / bluray_compat=0 / constrained_intra=0 / bframes=0 / weightp=2 / keyint=250 / keyint_min=25 / scenecut=40 / intra_refresh=0 / rc_lookahead=40 / rc=abr / mbtree=1 / bitrate=3000 / ratetol=1.0 / qcomp=0.60 / qpmin=10 / qpmax=51 / qpstep=4 / ip_ratio=1.41 / aq=1:1.00
Encoded date : UTC 2014-10-13 18:55:49
Tagged date : UTC 2014-10-13 18:55:49

Audio
ID : 2
Format : AC-3
Format/Info : Audio Coding 3
Mode extension : CM (complete main)
Codec ID : ac-3
Duration : 43mn 44s
Bit rate mode : Constant
Bit rate : 192 Kbps
Channel(s) : 2 channels
Channel positions : Front: L R
Sampling rate : 48.0 KHz
Bit depth : 16 bits
Compression mode : Lossy
Stream size : 60.1 MiB (6%)
Encoded date : UTC 2014-10-13 18:55:49
Tagged date : UTC 2014-10-13 18:55:49

Этот торрент недоступен для скачивания без регистрации, однако доступен по публичной magnet-ссылке (источники с публичных трекеров). Перед использованием ссылки прочтите, пожалуйста Пользовательское соглашение, а также как можно дольше оставайтесь на раздаче! Для того, чтобы скачать сам торрент-файл (который видит больше источников), а также для того, чтобы поблагодарить релизера, вам необходимо зарегистрироваться. Если регистрироваться лень - вы можете также попробовать скачать релиз по нашим партнерским ссылкам ниже.

[underverse.su].t46108.torrent
Трекер: Зарегистрирован   [ 11.11.2014 04:21 ]  

Статус: T временная (by nemos at 14.11.2014 19:55)
Поблагодарили: 3 человека
Тип торрента: публичный - доступные источники с открытых трекеров: 
Размер: 4,76 GB (занимает 1,09 DVDR, для записи нужно 2 болванки DVDR/RW)
 
 
Похожие темы
Форум Тема Автор Торрент Отв. Посл. сооб.
T Зарубежное кино [DVDRip, Low-Res HDRip, и т.д.] Ходячие мертвецы на диком Западе / Walking dead in the West / Cowboy Zombies (Пол Уинтерс) [2016 г., ужасы, DVDRip] MVO makkol
43 | 2

0 | 179

5

21.10.2016 22:19

Зарубежные сериалы Ходячие мертвецы / The Walking Dead / Сезон: 1, серии: 1-6 (Фрэнк Дарабонт, Эрнест Р. Дикерсон, Гай Ферленд) [2010 г., ужасы, драма, BDRip] MVO maddd
0 | 1

6 | 1757

35

11.01.2013 17:35

Зарубежные сериалы Ходячие мертвецы / The Walking Dead / Сезон 2 / 1-13 cерия (Эрнест Р. Дикерсон, Гвинет Хордер-Пэйтон) [2011 (2 сезон) г., триллер, WEB-DLRip] maddd
0 | 0

23 | 4165

47

09.12.2012 07:37

Зарубежные сериалы Ходячие мертвецы / The Walking Dead / Сезон: 3, серии: 1-16 (Эрнест Р. Дикерсон, Билл Джирхарт, Гай Ферленд) [2012-13 г., ужасы, триллер, драма, WEBDLRip] Fox garry
2 | 0

21 | 9726

19

03.10.2013 14:10

Зарубежные сериалы Ходячие мертвецы / The Walking Dead / Сезон 1-3 / Серии 1-35 (35) (Эрнест Р. Дикерсон, Гай Ферленд, Гвинет Хордер-Пэйтон) [2010-2013 г., Мистический триллер, ужасы, зомби, WEBDLRip-AVC] MVO Чертёнок
1 | 3

11 | 1425

33

08.10.2013 18:52

T Зарубежные сериалы Ходячие мертвецы / The Walking Dead / Сезон: 4 / Серии: 1-12 (Эрнест Р. Дикерсон, Гай Ферленд, Гвинет Хордер-Пэйтон) [2013 г., ужасы, триллер, драма, WEB-DLRip] MVO + Original garry
0 | 0

4 | 12405

11

12.03.2014 15:43

Зарубежные сериалы Ходячие мертвецы / The Walking Dead / Сезон 5 (1-16 серии из 16) (Грег Никотеро, Эрнест Р. Дикерсон, Гай Ферленд) [2014 г., ужасы, драма, WEB-DLRip] MVO older
28 | 5

0 | 1037

8

02.09.2015 15:51

Зарубежные сериалы Ходячие мертвецы / The Walking Dead / Сезон 6 (1-16 серии из 16) (Грег Никотеро, Эрнест Р. Дикерсон, Гай Ферленд) [2015 г., ужасы, драма, WEB-DLRip] MVO (FoX) + Original older
43 | 15

8 | 2407

5

05.05.2016 23:19

Комиксы Ходячие мертвецы / The Walking Dead [001-140] [2003-2015 г., зомби-апокалипсис, хоррор, драма, CBZ, FB2] RUS Паукан
3 | 0

0 | 626

7

05.05.2015 14:25

Зарубежные сериалы [BD / Remux / BDRip / WEB-DL / HDTV 1080/720р] Ходячие мертвецы / The Walking Dead / Сезон 3 / Серии 1-16 (16) ( Эрнест Р. Дикерсон, Гай Ферленд, Гвинет Хордер-Пэйтон) [2012 г., Ужасы, триллер, драма, WEBDLRip 720p] MVO + Original Чертёнок
10 | 4

2 | 1950

4

08.10.2013 17:42



Последний раз редактировалось: viktor.r-79 (11.11.2014 04:33), всего редактировалось 5 раз(а)

viktor.r-79 Пол:Муж

03-Ноя-2014 23:13

Добавил 4 серию

viktor.r-79 Пол:Муж

11-Ноя-2014 04:22

Добавил 5 серию

Яндекс.Метрика powered by Sphinx


В Н И М А Н И Е
Сайт не распространяет и не хранит электронные версии произведений, а лишь бесплатно и без коммерческой выгоды (не требуя взамен платы,
SMS и т.д.) предоставляет доступ к создаваемому пользователями каталогу ссылок на торрент-файлы, которые содержат только списки хеш-сумм.
Убедительная просьба с жалобами обращаться напрямую к пользователю, разместившему торрент файл.

Вверх