Loading...
Error

Таймлесс 2: Сапфировая книга / Saphirblau (Феликс Фуксштайнер, Катарина Шёде) [2014, Фантастика, фэнтези, драма, мелодрама, детектив, WEB-DLRip] MVO

Статистика раздачи
Размер:  1,46 GB   |    Зарегистрирован:  2 года 1 месяц   |    Скачан:  48 раз

Полного источника не было: 1 час 20 минут

Сидов:  0  |  0 KB/s  ]   Личеров:  0  |  0 KB/s  ]

* - сиды/пиры с внешних источников

   
 
Автор Сообщение

viktor.r-79 Пол:Муж

26-Окт-2014 17:20

Таймлесс 2: Сапфировая книга / Saphirblau
«Любовь будет вечной, если ты повелитель времени»

Год выпуска: 2014
Страна: Германия
Жанр: Фантастика, фэнтези, драма, мелодрама, детектив
Продолжительность: 01:56:00
Перевод: Профессиональный (многоголосый закадровый)
Режиссёр:
Феликс Фуксштайнер, Катарина Шёде
В ролях:
Мария Эрих, Яннис Нивёнер, Петер Симонишек, Йозефина Пройсс, Флориан Бартоломай, Руфус Бек, Лаура Берлин, Сандра Боргманн, Юстина дель Корте, Вероника Феррес

Описание:
Приключения юной Гвендолин Шеферд продолжаются. Она начинает все больше узнавать о тайнах мира путешественников во времени. Ей предстоит разгадать больше загадок и научиться быть светской леди для приемов в 18 веке. Гвендолин узнает больше о своей семье, в первую очередь о ее дедушке Лукасе. Также Гвен подозревает, что Гидеон скрывает что-то от нее, возможно какую-то сокровенную страшную тайну… Но с появлением нового, слегка надоедливого друга Ксемериуса, девушке становится легче преодолевать все препятствия на пути.
Качество: WEB-DLRip
Формат: AVI
Видео кодек: XviD
Аудио кодек: AC3
Видео: 720x304 (2.35:1), 24.000 fps, 1 599 Kbps
Аудио: AC-3, 48.0 KHz, 2 ch, 192 Kbps, CBR
\Sapfirova9.kniga.WEBDLRip.1400MB_.avi
Format : AVI
Format/Info : Audio Video Interleave
File size : 1.46 GiB
Duration : 1h 56mn
Overall bit rate : 1 801 Kbps
Writing application : VirtualDubMod 1.5.10.3 | www.virtualdub-fr.org || (build 2550/release)
Writing library : VirtualDubMod build 2550/release

Video
ID : 0
Format : MPEG-4 Visual
Format profile : Advanced Simple@L5
Format settings, BVOP : 2
Format settings, QPel : No
Format settings, GMC : No warppoints
Format settings, Matrix : Default (MPEG)
Codec ID : XVID
Codec ID/Hint : XviD
Duration : 1h 56mn
Bit rate : 1 599 Kbps
Width : 720 pixels
Height : 304 pixels
Display aspect ratio : 2.35:1
Frame rate : 24.000 fps
Color space : YUV
Chroma subsampling : 4:2:0
Bit depth : 8 bits
Scan type : Progressive
Compression mode : Lossy
Bits/(Pixel*Frame) : 0.304
Stream size : 1.30 GiB (89%)
Writing library : XviD 1.2.1 (UTC 2008-12-04)

Audio
ID : 1
Format : AC-3
Format/Info : Audio Coding 3
Mode extension : CM (complete main)
Codec ID : 2000
Duration : 1h 56mn
Bit rate mode : Constant
Bit rate : 192 Kbps
Channel(s) : 2 channels
Channel positions : Front: L R
Sampling rate : 48.0 KHz
Bit depth : 16 bits
Compression mode : Lossy
Stream size : 159 MiB (11%)
Alignment : Split accross interleaves
Interleave, duration : 42 ms (1.00 video frame)
Interleave, preload duration : 500 ms
pic pic pic
Для увеличения картинки щелкните мышкой по превью

Этот торрент недоступен для скачивания без регистрации, однако доступен по публичной magnet-ссылке (источники с публичных трекеров). Перед использованием ссылки прочтите, пожалуйста Пользовательское соглашение, а также как можно дольше оставайтесь на раздаче! Для того, чтобы скачать сам торрент-файл (который видит больше источников), а также для того, чтобы поблагодарить релизера, вам необходимо зарегистрироваться. Если регистрироваться лень - вы можете также попробовать скачать релиз по нашим партнерским ссылкам ниже.

[underverse.su].t45506.torrent
Трекер: Зарегистрирован   [ 26.10.2014 17:50 ]  

Статус: T временная (by Ведьмочка at 26.10.2014 17:58)
Поблагодарили: 1 человек
Тип торрента: публичный - доступные источники с открытых трекеров: 
Размер: 1,46 GB (занимает 0,33 DVDR, для записи нужно 1 болванка DVDR/RW)
 
 
Похожие темы
Форум Тема Автор Торрент Отв. Посл. сооб.
Зарубежное кино [DVDRip, Low-Res HDRip, и т.д.] Таймлесс 2: Сапфировая книга / Saphirblau (Феликс Фуксштайнер, Катарина Шёде) [2014 г., фантастика, фэнтези, драма, мелодрама, детектив, HDRip] MVO + Original (Ger) 90ytr90
5 | 0

0 | 595

23

22.02.2015 12:02

Зарубежное кино [DVDRip, Low-Res HDRip, и т.д.] Таймлесс 2: Сапфировая книга / Saphirblau (Феликс Фуксштайнер, Катарина Шёде) [2014 г., фантастика, фэнтези, драма, мелодрама, детектив, BDRip-AVC] MVO + Original (Ger) + Sub (Ger) 90ytr90
12 | 0

0 | 513

14

28.02.2015 20:47

Зарубежное кино [HDDVDRip / BDRip / WEB-DL / HDTV 1080/720р] Таймлесс 2: Сапфировая книга / Saphirblau (Феликс Фуксштайнер, Катарина Шёде) [2014 г., фантастика, фэнтези, драма, мелодрама, детектив, BDRip 1080p] MVO + Original (Ger) 90ytr90
9 | 0

0 | 644

14

22.02.2015 12:05

Зарубежное кино [HDDVDRip / BDRip / WEB-DL / HDTV 1080/720р] Таймлесс 2: Сапфировая книга / Saphirblau (Феликс Фуксштайнер, Катарина Шёде) [2014 г., фантастика, фэнтези, драма, мелодрама, детектив, BDRip 720p] MVO 90ytr90
14 | 2

0 | 448

8

28.02.2015 11:26

Зарубежное кино [HDDVDRip / BDRip / WEB-DL / HDTV 1080/720р] Таймлесс 2: Сапфировая книга / Saphirblau (Феликс Фуксштайнер, Катарина Шёде) [2014 г., фантастика, фэнтези, драма, мелодрама, детектив, BDRip 720p] MVO + Original (Ger) + Sub (Ger) 90ytr90
11 | 0

0 | 476

5

28.02.2015 11:34



Последний раз редактировалось: viktor.r-79 (26.10.2014 17:50), всего редактировалось 3 раз(а)

Яндекс.Метрика powered by Sphinx


В Н И М А Н И Е
Сайт не распространяет и не хранит электронные версии произведений, а лишь бесплатно и без коммерческой выгоды (не требуя взамен платы,
SMS и т.д.) предоставляет доступ к создаваемому пользователями каталогу ссылок на торрент-файлы, которые содержат только списки хеш-сумм.
Убедительная просьба с жалобами обращаться напрямую к пользователю, разместившему торрент файл.

Вверх