Loading...
Error

Дело Батагами (1-8 серия из 8) (Оксана Сидоренко) [2014 г., боевик, SatRip]

Статистика раздачи
Размер:  4,29 GB   |    Зарегистрирован:  2 года 1 месяц   |    Скачан:  28 раз
Сидов:  2  |  0,3 KB/s  ]   Личеров:  0  |  0 KB/s  ]

* - сиды/пиры с внешних источников

   
 
Автор Сообщение

nemos Пол:Муж

25-Окт-2014 18:24



Год выпуска: 2014 г.
Дата российской премьеры: 25 октября 2014 (Россия-2)
Жанр: боевик
Страна: Россия
Режиссер: Оксана Сидоренко
В ролях: Андрей Чадов, Лилия Мэй, Игорь Жижикин, Дмитрий Ратомский, Любовь Толкалина, Евгений Воловенко, Руслан Спояло, Игорь Емелин, Владимир Носик, Марк Дакаскос, Алина Бабак, Юлия Гришина, Юлия Максимова
Сюжет фильма:
В день, когда погибает его собственная невеста, телохранитель Илья решает оставить профессию. Бывшему коллеге и другу Юрию стоило немалых трудов вытащить парня из депрессии и завербовать в недавно созданный Департамент по защите свидетелей. Илья полностью уходит в работу, удивляя коллег нестандартным мышлением и молниеносными ходами на опережение. Вскоре Илья понимает, что смерть невесты связана с изощренной, дьявольски изобретательной местью некоего иностранного бизнесмена к нечистоплотному в делах московскому коммерсанту. Разобравшись в этой интриге, Илья сможет узнать правду о своей пропавшей любимой…


Качество видео: SatRip

Продолжительность: 00:42:21 серия
Формат: AVI
Видео: XviD, 720x400, 1610 kbps
Аудио: русский, AC3 2.0, 192 kbps

Код:

D:\Фильмы Раздача-1\Delo.botagami.2014.SATRip.RG.Russkie.serialy.&.Files-x-Generalfilm\01.Delo.botagami.2014.SATRip.RG.Russkie.serialy.&.Files-x-Generalfilm.avi
   General
      Complete name : D:\Фильмы Раздача-1\Delo.botagami.2014.SATRip.RG.Russkie.serialy.&.Files-x-Generalfilm\01.Delo.botagami.2014.SATRip.RG.Russkie.serialy.&.Files-x-Generalfilm.avi
      Format : AVI
      Format/Info : Audio Video Interleave
      File size : 549 MiB
      Duration : 42mn 21s
      Overall bit rate : 1 812 Kbps
      Writing application : VirtualDubModRus 1.5.10.2 (build 2542/release)
      Writing library : VirtualDubMod build 2542/release
   Video #0
      ID : 0
      Format : MPEG-4 Visual
      Format profile : Advanced Simple@L5
      Format settings, BVOP : 1
      Format settings, QPel : No
      Format settings, GMC : No warppoints
      Format settings, Matrix : Custom
      Codec ID : XVID
      Codec ID/Hint : XviD
      Duration : 42mn 21s
      Bit rate : 1 610 Kbps
      Width : 720 pixels
      Height : 400 pixels
      Display aspect ratio : 16:9
      Frame rate : 25.000 fps
      Color space : YUV
      Chroma subsampling : 4:2:0
      Bit depth : 8 bits
      Scan type : Progressive
      Compression mode : Lossy
      Bits/(Pixel*Frame) : 0.224
      Stream size : 488 MiB (89%)
      Writing library : XviD 73
   Audio #1
      ID : 1
      Format : AC-3
      Format/Info : Audio Coding 3
      Mode extension : CM (complete main)
      Format settings, Endianness : Big
      Codec ID : 2000
      Duration : 42mn 21s
      Bit rate mode : Constant
      Bit rate : 192 Kbps
      Channel(s) : 2 channels
      Channel positions : Front: L R
      Sampling rate : 48.0 KHz
      Bit depth : 16 bits
      Compression mode : Lossy
      Stream size : 58.2 MiB (11%)
      Alignment : Split accross interleaves
      Interleave, duration : 40 ms (1.00 video frame)
      Interleave, preload duration : 500 ms
picpicpicpicpicpicpicpicpicpicpicpicpicpic
Для увеличения картинки щелкните мышкой по превью

Этот торрент недоступен для скачивания без регистрации, однако доступен по публичной magnet-ссылке (источники с публичных трекеров). Перед использованием ссылки прочтите, пожалуйста Пользовательское соглашение, а также как можно дольше оставайтесь на раздаче! Для того, чтобы скачать сам торрент-файл (который видит больше источников), а также для того, чтобы поблагодарить релизера, вам необходимо зарегистрироваться. Если регистрироваться лень - вы можете также попробовать скачать релиз по нашим партнерским ссылкам ниже.

[underverse.su].t45541.torrent
Трекер: Зарегистрирован   [ 27.10.2014 16:43 ]  

Статус: проверено (by nemos at 27.10.2014 16:43)
Поблагодарили: 3 человека
Тип торрента: публичный - доступные источники с открытых трекеров: 
Размер: 4,29 GB (занимает 0,98 DVDR, для записи нужно 1 болванка DVDR/RW)
 
 


Последний раз редактировалось: nemos (27.10.2014 16:43), всего редактировалось 1 раз

nemos Пол:Муж

26-Окт-2014 18:13

Раздача обновлена! 08 серий.

Яндекс.Метрика powered by Sphinx


В Н И М А Н И Е
Сайт не распространяет и не хранит электронные версии произведений, а лишь бесплатно и без коммерческой выгоды (не требуя взамен платы,
SMS и т.д.) предоставляет доступ к создаваемому пользователями каталогу ссылок на торрент-файлы, которые содержат только списки хеш-сумм.
Убедительная просьба с жалобами обращаться напрямую к пользователю, разместившему торрент файл.

Вверх