Loading...
Error

Женаты… с детьми / Married… with Children / 1-11 Сезоны / Серии: 261 из 261/ (Рон Лёвитт, Майкл Дж. Мое ) [1987-1997, комедия, ситком, DVDRip] русский, многоголосый, закадровый Dub, + Original (ENG) + Subs (RUS) отключаемые]

Статистика раздачи
Размер:  51,72 GB   |    Зарегистрирован:  2 года 1 месяц   |    Скачан:  0 раз

Полного источника не было: 9 месяцев

Сидов:  0  |  0 KB/s  ]   Личеров:  0  |  0 KB/s  ]

* - сиды/пиры с внешних источников

   
 
Автор Сообщение

MR.ORION Пол:Муж

25-Окт-2014 08:28

Женаты… с детьми / Married… with Children
ВСЕ СЕЗОНЫ (1-11 сезон)


Год выпуска: 1987-1997
Жанр: Комедия, ситком
Страна: США
Режиссер: Рон Лёвитт, Майкл Дж. Мое
В ролях: Эд О'Нилл Кэти Сагал Кристина Эпплгейт Дэвид Фаустино Дэвид Гаррисон Тед МакГинли Аманда Бирс

Сюжет фильма:
Эл Банди женат уже много лет (16 лет в первых сериях, 26 в последних), работает продавцом обуви. Он вечно голоден, так как жена Пегги никогда не готовит и вообще не выполняет работу по дому, смотрит целый день ток-шоу и сериалы. У них двое детей: красотка Келли и сексуально озабоченный Бад (начиная лет с 14-ти).
Всё семейство не любит друг друга. Они постоянно издеваются друг над другом (особенно над Элом). Но несмотря на это они всегда будут оставаться вместе, и их сложнее разлучить, чем кажется. Основные темы сериала — отсутствие денег в доме и отсутствие потенции у Эла, правда многие серии начинаются с отсутствия еды в холодильнике или с выражения недовольства Элом, вызванным обычно толстыми женщинами в его магазине или жизнью/миром в целом. Ещё у них есть соседи: феминистка Марси, банковский работник Стив (впоследствии будет заменен на бывшего агента ЦРУ и жигало Джеферсона).

Качество видео: DVDRip

Продолжительность: ~00:23:00 (каждая серия)
Формат: AVI
Видео: MPEG-4 Visual XVID 1282 Кбит/сек (4:3), 576х432, 29,970 кадров/сек
Аудио #1 MPEG Audio, Layer 3, 128 Кбит/сек, 48,0 КГц [RUS]
Аудио #2 MPEG Audio, Layer 3, 128 Кбит/сек, 48,0 КГц [ENG]
Перевод: русский, многоголосый закадровый Dub + Original (ENG) + Subs (RUS) [профессиональный]
Субтитры: тип: вшитые, отключаемые формат: SubRip [русские]

Код:

Формат                                   : AVI
Формат/Информация                        : Audio Video Interleave
Профиль формата                          : OpenDML
Настройки формата                        : rec
Размер файла                             : 251 Мбайт
Продолжительность                        : 22 м.
Режим общего битрейта                    : Переменный
Общий поток                              : 1534 Кбит/сек
Название фильма                          : Season 1, Episode 1: Pilot
Программа кодирования                    : AVI-Mux GUI 1.17.7, Aug  8 2006  20:59:17

Видео
Идентификатор                            : 0
Формат                                   : MPEG-4 Visual
Параметр BVOP формата                    : Нет
Параметр QPel формата                    : Нет
Параметр GMC формата                     : Без точки перехода
Параметр матрицы формата                 : Default (H.263)
Идентификатор кодека                     : XVID
Идентификатор кодека/Подсказка           : XviD
Продолжительность                        : 22 м.
Битрейт                                  : 1282 Кбит/сек
Ширина                                   : 576 пикселей
Высота                                   : 432 пикселя
Соотношение сторон                       : 4:3
Частота кадров                           : 29,970 кадров/сек
Цветовое пространство                    : YUV
Субдискретизация насыщенности            : 4:2:0
Битовая глубина                          : 8 бит
Тип развёртки                            : Прогрессивная
Метод сжатия                             : С потерями
Бит/(Пиксели*Кадры)                      : 0.172
Размер потока                            : 210 Мбайт (84%)
Заголовок                                : Season 1, Episode 1: Pilot

Аудио #1
Идентификатор                            : 1
Формат                                   : MPEG Audio
Версия формата                           : Version 1
Профиль формата                          : Layer 3
Режим                                    : Joint stereo
Расширение режима                        : MS Stereo
Идентификатор кодека                     : 55
Идентификатор кодека/Подсказка           : MP3
Продолжительность                        : 22 м.
Вид битрейта                             : Постоянный
Битрейт                                  : 128 Кбит/сек
Каналы                                   : 2 канала
Частота                                  : 48,0 КГц
Метод сжатия                             : С потерями
Размер потока                            : 20,9 Мбайт (8%)
Выравнивание                             : Соединение по промежуткам
Продолжительность промежутка             : 24  мс. (0,72 видеокадр)
Время предзагрузки промежутка            : 192  мс.
Заголовок                                : Russian

Аудио #2
Идентификатор                            : 2
Формат                                   : MPEG Audio
Версия формата                           : Version 1
Профиль формата                          : Layer 3
Режим                                    : Joint stereo
Идентификатор кодека                     : 55
Идентификатор кодека/Подсказка           : MP3
Продолжительность                        : 22 м.
Вид битрейта                             : Переменный
Битрейт                                  : 108 Кбит/сек
Номинальный битрейт                      : 128 Кбит/сек
Каналы                                   : 2 канала
Частота                                  : 48,0 КГц
Метод сжатия                             : С потерями
Размер потока                            : 17,6 Мбайт (7%)
Выравнивание                             : Соединение по промежуткам
Продолжительность промежутка             : 24  мс. (0,72 видеокадр)
Время предзагрузки промежутка            : 177  мс.
Заголовок                                : English
Библиотека кодирования                   : LAME3.92
Настройки программы                      : -m j -V 0 -q 2 -lowpass 15.3 --abr 128

Текст
Идентификатор                            : 3
Формат                                   : SubRip
Метод сжатия                             : Без потерь
Размер потока                            : 33,4 Кбайт (0%)

Код:

Формат                                   : AVI
Формат/Информация                        : Audio Video Interleave
Профиль формата                          : OpenDML
Настройки формата                        : rec
Размер файла                             : 197 Мбайт
Продолжительность                        : 23 м.
Режим общего битрейта                    : Переменный
Общий поток                              : 1186 Кбит/сек
Программа кодирования                    : AVI-Mux GUI 1.17.7, Aug  8 2006  20:59:17

Видео
Идентификатор                            : 0
Формат                                   : MPEG-4 Visual
Идентификатор кодека                     : XVID
Идентификатор кодека/Подсказка           : XviD
Продолжительность                        : 23 м.
Битрейт                                  : 884 Кбит/сек
Ширина                                   : 512 пикселей
Высота                                   : 384 пикселя
Соотношение сторон                       : 4:3
Частота кадров                           : 29,970 кадров/сек
Цветовое пространство                    : YUV
Субдискретизация насыщенности            : 4:2:0
Метод сжатия                             : С потерями
Бит/(Пиксели*Кадры)                      : 0.150
Размер потока                            : 147 Мбайт (75%)
Заголовок                                : Season 2, Episode 1: Poppy's by the Tree: Part 1

Аудио #1
Идентификатор                            : 1
Формат                                   : MPEG Audio
Версия формата                           : Version 1
Профиль формата                          : Layer 3
Режим                                    : Joint stereo
Расширение режима                        : MS Stereo
Идентификатор кодека                     : 55
Идентификатор кодека/Подсказка           : MP3
Продолжительность                        : 23 м.
Вид битрейта                             : Постоянный
Битрейт                                  : 128 Кбит/сек
Каналы                                   : 2 канала
Частота                                  : 48,0 КГц
Метод сжатия                             : С потерями
Размер потока                            : 21,2 Мбайт (11%)
Выравнивание                             : Соединение по промежуткам
Заголовок                                : Russian

Аудио #2
Идентификатор                            : 2
Формат                                   : MPEG Audio
Версия формата                           : Version 1
Профиль формата                          : Layer 3
Идентификатор кодека                     : 55
Идентификатор кодека/Подсказка           : MP3
Продолжительность                        : 23 м.
Вид битрейта                             : Переменный
Битрейт                                  : 115 Кбит/сек
Номинальный битрейт                      : 126 Кбит/сек
Каналы                                   : 2 канала
Частота                                  : 48,0 КГц
Метод сжатия                             : С потерями
Размер потока                            : 19,0 Мбайт (10%)
Выравнивание                             : Соединение по промежуткам
Заголовок                                : English
Библиотека кодирования                   : LAME3.93
Настройки программы                      : -m s -V 4 -q 2 -lowpass 13.6 --abr 126

Текст
Идентификатор                            : 3
Размер потока                            : 29,1 Кбайт (0%)

Код:

Формат                                   : AVI
Формат/Информация                        : Audio Video Interleave
Профиль формата                          : OpenDML
Настройки формата                        : rec
Размер файла                             : 196 Мбайт
Продолжительность                        : 23 м.
Режим общего битрейта                    : Переменный
Общий поток                              : 1175 Кбит/сек
Название фильма                          : Season 3, Episode 1: He Thought He Could
Программа кодирования                    : AVI-Mux GUI 1.17.7, Aug  8 2006  20:59:17

Видео
Идентификатор                            : 0
Формат                                   : MPEG-4 Visual
Профиль формата                          : Advanced Simple@L5
Параметр BVOP формата                    : 1
Параметр QPel формата                    : Нет
Параметр GMC формата                     : Без точки перехода
Параметр матрицы формата                 : Выборочная
Идентификатор кодека                     : XVID
Идентификатор кодека/Подсказка           : XviD
Продолжительность                        : 23 м.
Битрейт                                  : 908 Кбит/сек
Ширина                                   : 512 пикселей
Высота                                   : 384 пикселя
Соотношение сторон                       : 4:3
Частота кадров                           : 29,970 кадров/сек
Цветовое пространство                    : YUV
Субдискретизация насыщенности            : 4:2:0
Битовая глубина                          : 8 бит
Тип развёртки                            : Прогрессивная
Метод сжатия                             : С потерями
Бит/(Пиксели*Кадры)                      : 0.154
Размер потока                            : 151 Мбайт (77%)
Заголовок                                : Season 3, Episode 1: He Thought He Could
Библиотека кодирования                   : XviD 1.0.2 (UTC 2004-08-29)

Аудио #1
Идентификатор                            : 1
Формат                                   : MPEG Audio
Версия формата                           : Version 1
Профиль формата                          : Layer 3
Режим                                    : Joint stereo
Расширение режима                        : MS Stereo
Идентификатор кодека                     : 55
Идентификатор кодека/Подсказка           : MP3
Продолжительность                        : 23 м.
Вид битрейта                             : Постоянный
Битрейт                                  : 128 Кбит/сек
Каналы                                   : 2 канала
Частота                                  : 48,0 КГц
Метод сжатия                             : С потерями
Размер потока                            : 21,3 Мбайт (11%)
Выравнивание                             : Соединение по промежуткам
Продолжительность промежутка             : 24  мс. (0,72 видеокадр)
Время предзагрузки промежутка            : 192  мс.
Заголовок                                : Russian

Аудио #2
Идентификатор                            : 2
Формат                                   : MPEG Audio
Версия формата                           : Version 1
Профиль формата                          : Layer 3
Режим                                    : Joint stereo
Расширение режима                        : MS Stereo
Идентификатор кодека                     : 55
Идентификатор кодека/Подсказка           : MP3
Продолжительность                        : 23 м.
Вид битрейта                             : Переменный
Битрейт                                  : 128 Кбит/сек
Каналы                                   : 2 канала
Частота                                  : 48,0 КГц
Метод сжатия                             : С потерями
Размер потока                            : 20,7 Мбайт (11%)
Выравнивание                             : Соединение по промежуткам
Продолжительность промежутка             : 24  мс. (0,72 видеокадр)
Время предзагрузки промежутка            : 67  мс.
Заголовок                                : English
Библиотека кодирования                   : LAME3.90.
Настройки программы                      : -m j -V 4 -q 2 -lowpass 17.6 --abr 128

Текст
Идентификатор                            : 3
Формат                                   : SubRip
Метод сжатия                             : Без потерь
Размер потока                            : 31,0 Кбайт (0%)

Код:

Формат                                   : AVI
Формат/Информация                        : Audio Video Interleave
Профиль формата                          : OpenDML
Настройки формата                        : rec
Размер файла                             : 196 Мбайт
Продолжительность                        : 23 м.
Режим общего битрейта                    : Переменный
Общий поток                              : 1181 Кбит/сек
Название фильма                          : Season 4, Episode 1: Hot off the Grill
Программа кодирования                    : AVI-Mux GUI 1.17.7, Aug  8 2006  20:59:17

Видео
Идентификатор                            : 0
Формат                                   : MPEG-4 Visual
Профиль формата                          : Advanced Simple@L5
Параметр BVOP формата                    : 1
Параметр QPel формата                    : Нет
Параметр GMC формата                     : Без точки перехода
Параметр матрицы формата                 : Default (H.263)
Режим смешивания                         : Сжатый битовый поток
Идентификатор кодека                     : XVID
Идентификатор кодека/Подсказка           : XviD
Продолжительность                        : 23 м.
Битрейт                                  : 887 Кбит/сек
Ширина                                   : 448 пикселей
Высота                                   : 336 пикселей
Соотношение сторон                       : 4:3
Частота кадров                           : 29,970 кадров/сек
Цветовое пространство                    : YUV
Субдискретизация насыщенности            : 4:2:0
Битовая глубина                          : 8 бит
Тип развёртки                            : Прогрессивная
Метод сжатия                             : С потерями
Бит/(Пиксели*Кадры)                      : 0.197
Размер потока                            : 147 Мбайт (75%)
Заголовок                                : Season 4, Episode 1: Hot off the Grill
Библиотека кодирования                   : XviD 1.0.3 (UTC 2004-12-20)

Аудио #1
Идентификатор                            : 1
Формат                                   : MPEG Audio
Версия формата                           : Version 1
Профиль формата                          : Layer 3
Режим                                    : Joint stereo
Идентификатор кодека                     : 55
Идентификатор кодека/Подсказка           : MP3
Продолжительность                        : 23 м.
Вид битрейта                             : Постоянный
Битрейт                                  : 128 Кбит/сек
Каналы                                   : 2 канала
Частота                                  : 48,0 КГц
Метод сжатия                             : С потерями
Размер потока                            : 21,2 Мбайт (11%)
Выравнивание                             : Соединение по промежуткам
Продолжительность промежутка             : 24  мс. (0,72 видеокадр)
Время предзагрузки промежутка            : 192  мс.
Заголовок                                : Russian

Аудио #2
Идентификатор                            : 2
Формат                                   : MPEG Audio
Версия формата                           : Version 1
Профиль формата                          : Layer 3
Режим                                    : Joint stereo
Расширение режима                        : MS Stereo
Идентификатор кодека                     : 55
Идентификатор кодека/Подсказка           : MP3
Продолжительность                        : 23 м.
Вид битрейта                             : Переменный
Битрейт                                  : 151 Кбит/сек
Каналы                                   : 2 канала
Частота                                  : 48,0 КГц
Метод сжатия                             : С потерями
Размер потока                            : 25,1 Мбайт (13%)
Выравнивание                             : Соединение по промежуткам
Продолжительность промежутка             : 24  мс. (0,72 видеокадр)
Время предзагрузки промежутка            : 55  мс.
Заголовок                                : English
Библиотека кодирования                   : LAME3.93
Настройки программы                      : -m j -V 1 -q 2 -lowpass 19.5 --vbr-new

Текст
Идентификатор                            : 3
Размер потока                            : 29,3 Кбайт (0%)

Код:

Формат                                   : AVI
Формат/Информация                        : Audio Video Interleave
Профиль формата                          : OpenDML
Настройки формата                        : rec
Размер файла                             : 255 Мбайт
Продолжительность                        : 23 м.
Режим общего битрейта                    : Переменный
Общий поток                              : 1536 Кбит/сек
Название фильма                          : Season 5, Episode 1: We'll Follow the Sun
Программа кодирования                    : AVI-Mux GUI 1.17.7, Aug  8 2006  20:59:17

Видео
Идентификатор                            : 0
Формат                                   : MPEG-4 Visual
Профиль формата                          : Advanced Simple@L5
Параметр BVOP формата                    : 2
Параметр QPel формата                    : Нет
Параметр GMC формата                     : Без точки перехода
Параметр матрицы формата                 : Default (H.263)
Идентификатор кодека                     : XVID
Идентификатор кодека/Подсказка           : XviD
Продолжительность                        : 23 м.
Битрейт                                  : 1263 Кбит/сек
Ширина                                   : 512 пикселей
Высота                                   : 384 пикселя
Соотношение сторон                       : 4:3
Частота кадров                           : 29,970 кадров/сек
Цветовое пространство                    : YUV
Субдискретизация насыщенности            : 4:2:0
Битовая глубина                          : 8 бит
Тип развёртки                            : Прогрессивная
Метод сжатия                             : С потерями
Бит/(Пиксели*Кадры)                      : 0.214
Размер потока                            : 209 Мбайт (82%)
Заголовок                                : Season 5, Episode 1: We'll Follow the Sun
Библиотека кодирования                   : XviD 1.1.0 (UTC 2005-11-22)

Аудио #1
Идентификатор                            : 1
Формат                                   : MPEG Audio
Версия формата                           : Version 1
Профиль формата                          : Layer 3
Режим                                    : Joint stereo
Расширение режима                        : MS Stereo
Идентификатор кодека                     : 55
Идентификатор кодека/Подсказка           : MP3
Продолжительность                        : 23 м.
Вид битрейта                             : Постоянный
Битрейт                                  : 128 Кбит/сек
Каналы                                   : 2 канала
Частота                                  : 48,0 КГц
Метод сжатия                             : С потерями
Размер потока                            : 21,2 Мбайт (8%)
Выравнивание                             : Соединение по промежуткам
Продолжительность промежутка             : 24  мс. (0,72 видеокадр)
Время предзагрузки промежутка            : 192  мс.
Заголовок                                : Russian

Аудио #2
Идентификатор                            : 2
Формат                                   : MPEG Audio
Версия формата                           : Version 1
Профиль формата                          : Layer 3
Режим                                    : Joint stereo
Расширение режима                        : MS Stereo
Идентификатор кодека                     : 55
Идентификатор кодека/Подсказка           : MP3
Продолжительность                        : 23 м.
Вид битрейта                             : Переменный
Битрейт                                  : 128 Кбит/сек
Каналы                                   : 2 канала
Частота                                  : 48,0 КГц
Метод сжатия                             : С потерями
Размер потока                            : 21,5 Мбайт (8%)
Выравнивание                             : Соединение по промежуткам
Продолжительность промежутка             : 24  мс. (0,72 видеокадр)
Время предзагрузки промежутка            : 141  мс.
Заголовок                                : English
Библиотека кодирования                   : LAME3.96.1

Текст
Идентификатор                            : 3
Формат                                   : SubRip
Метод сжатия                             : Без потерь
Размер потока                            : 27,2 Кбайт (0%)

Код:

Формат                                   : AVI
Формат/Информация                        : Audio Video Interleave
Профиль формата                          : OpenDML
Настройки формата                        : rec
Размер файла                             : 193 Мбайт
Продолжительность                        : 23 м.
Режим общего битрейта                    : Переменный
Общий поток                              : 1175 Кбит/сек
Программа кодирования                    : AVI-Mux GUI 1.17.7, Aug  8 2006  20:59:17

Видео
Идентификатор                            : 0
Формат                                   : MPEG-4 Visual
Идентификатор кодека                     : XVID
Идентификатор кодека/Подсказка           : XviD
Продолжительность                        : 23 м.
Битрейт                                  : 852 Кбит/сек
Ширина                                   : 512 пикселей
Высота                                   : 384 пикселя
Соотношение сторон                       : 4:3
Частота кадров                           : 25,000 кадров/сек
Цветовое пространство                    : YUV
Субдискретизация насыщенности            : 4:2:0
Метод сжатия                             : С потерями
Бит/(Пиксели*Кадры)                      : 0.173
Размер потока                            : 140 Мбайт (72%)
Заголовок                                : Season 6, Episode 1: She's Having a Baby: Part 1

Аудио #1
Идентификатор                            : 1
Формат                                   : MPEG Audio
Версия формата                           : Version 1
Профиль формата                          : Layer 3
Режим                                    : Joint stereo
Расширение режима                        : MS Stereo
Идентификатор кодека                     : 55
Идентификатор кодека/Подсказка           : MP3
Продолжительность                        : 23 м.
Вид битрейта                             : Постоянный
Битрейт                                  : 128 Кбит/сек
Каналы                                   : 2 канала
Частота                                  : 48,0 КГц
Метод сжатия                             : С потерями
Размер потока                            : 21,1 Мбайт (11%)
Выравнивание                             : Соединение по промежуткам
Заголовок                                : Russian

Аудио #2
Идентификатор                            : 2
Формат                                   : MPEG Audio
Версия формата                           : Version 1
Профиль формата                          : Layer 3
Режим                                    : Joint stereo
Расширение режима                        : MS Stereo
Идентификатор кодека                     : 55
Идентификатор кодека/Подсказка           : MP3
Продолжительность                        : 23 м.
Вид битрейта                             : Переменный
Битрейт                                  : 136 Кбит/сек
Номинальный битрейт                      : 128 Кбит/сек
Каналы                                   : 2 канала
Частота                                  : 48,0 КГц
Метод сжатия                             : С потерями
Размер потока                            : 22,4 Мбайт (12%)
Выравнивание                             : Соединение по промежуткам
Заголовок                                : English
Библиотека кодирования                   : LAME3.96r
Настройки программы                      : -m j -V 4 -q 3 -lowpass 17.5 --abr 128

Текст
Идентификатор                            : 3
Размер потока                            : 20,0 Кбайт (0%)

Код:

Формат                                   : AVI
Формат/Информация                        : Audio Video Interleave
Профиль формата                          : OpenDML
Настройки формата                        : rec
Размер файла                             : 193 Мбайт
Продолжительность                        : 22 м.
Режим общего битрейта                    : Переменный
Общий поток                              : 1178 Кбит/сек
Название фильма                          : Season 7, Episode 1: Magnificent Seven
Программа кодирования                    : AVI-Mux GUI 1.17.7, Aug  8 2006  20:59:17

Видео
Идентификатор                            : 0
Формат                                   : MPEG-4 Visual
Профиль формата                          : Advanced Simple@L5
Параметр BVOP формата                    : 2
Параметр QPel формата                    : Нет
Параметр GMC формата                     : Без точки перехода
Параметр матрицы формата                 : Default (H.263)
Идентификатор кодека                     : XVID
Идентификатор кодека/Подсказка           : XviD
Продолжительность                        : 22 м.
Битрейт                                  : 899 Кбит/сек
Ширина                                   : 512 пикселей
Высота                                   : 384 пикселя
Соотношение сторон                       : 4:3
Частота кадров                           : 25,000 кадров/сек
Цветовое пространство                    : YUV
Субдискретизация насыщенности            : 4:2:0
Битовая глубина                          : 8 бит
Тип развёртки                            : Прогрессивная
Метод сжатия                             : С потерями
Бит/(Пиксели*Кадры)                      : 0.183
Размер потока                            : 147 Мбайт (76%)
Заголовок                                : Season 7, Episode 1: Magnificent Seven
Библиотека кодирования                   : XviD 1.1.0 (UTC 2005-11-22)

Аудио #1
Идентификатор                            : 1
Формат                                   : MPEG Audio
Версия формата                           : Version 1
Профиль формата                          : Layer 3
Режим                                    : Joint stereo
Расширение режима                        : MS Stereo
Идентификатор кодека                     : 55
Идентификатор кодека/Подсказка           : MP3
Продолжительность                        : 22 м.
Вид битрейта                             : Постоянный
Битрейт                                  : 128 Кбит/сек
Каналы                                   : 2 канала
Частота                                  : 48,0 КГц
Метод сжатия                             : С потерями
Размер потока                            : 21,0 Мбайт (11%)
Выравнивание                             : Соединение по промежуткам
Продолжительность промежутка             : 24  мс. (0,60 видеокадр)
Время предзагрузки промежутка            : 192  мс.
Заголовок                                : Russian

Аудио #2
Идентификатор                            : 2
Формат                                   : MPEG Audio
Версия формата                           : Version 1
Профиль формата                          : Layer 3
Режим                                    : Joint stereo
Расширение режима                        : MS Stereo
Идентификатор кодека                     : 55
Идентификатор кодека/Подсказка           : MP3
Продолжительность                        : 22 м.
Вид битрейта                             : Переменный
Битрейт                                  : 136 Кбит/сек
Номинальный битрейт                      : 128 Кбит/сек
Каналы                                   : 2 канала
Частота                                  : 48,0 КГц
Метод сжатия                             : С потерями
Размер потока                            : 22,4 Мбайт (12%)
Выравнивание                             : Соединение по промежуткам
Продолжительность промежутка             : 24  мс. (0,60 видеокадр)
Время предзагрузки промежутка            : 61  мс.
Заголовок                                : English
Библиотека кодирования                   : LAME3.96r
Настройки программы                      : -m j -V 4 -q 3 -lowpass 17.5 --abr 128

Текст
Идентификатор                            : 3
Формат                                   : SubRip
Метод сжатия                             : Без потерь
Размер потока                            : 19,9 Кбайт (0%)

Код:

Формат                                   : AVI
Формат/Информация                        : Audio Video Interleave
Профиль формата                          : OpenDML
Настройки формата                        : rec
Размер файла                             : 194 Мбайт
Продолжительность                        : 22 м.
Режим общего битрейта                    : Переменный
Общий поток                              : 1190 Кбит/сек
Название фильма                          : Season 8, Episode 1: A Tisket, a Tasket, Can Peg Make a Basket
Программа кодирования                    : AVI-Mux GUI 1.17.7, Aug  8 2006  20:59:17

Видео
Идентификатор                            : 0
Формат                                   : MPEG-4 Visual
Профиль формата                          : Advanced Simple@L5
Параметр BVOP формата                    : 1
Параметр QPel формата                    : Нет
Параметр GMC формата                     : Без точки перехода
Параметр матрицы формата                 : Default (H.263)
Режим смешивания                         : Сжатый битовый поток
Идентификатор кодека                     : XVID
Идентификатор кодека/Подсказка           : XviD
Продолжительность                        : 22 м.
Битрейт                                  : 912 Кбит/сек
Ширина                                   : 512 пикселей
Высота                                   : 384 пикселя
Соотношение сторон                       : 4:3
Частота кадров                           : 25,000 кадров/сек
Цветовое пространство                    : YUV
Субдискретизация насыщенности            : 4:2:0
Битовая глубина                          : 8 бит
Тип развёртки                            : Прогрессивная
Метод сжатия                             : С потерями
Бит/(Пиксели*Кадры)                      : 0.186
Размер потока                            : 149 Мбайт (77%)
Заголовок                                : Season 8, Episode 1: A Tisket, a Tasket, Can Peg Make a Basket
Библиотека кодирования                   : XviD 1.1.2 (UTC 2006-11-01)

Аудио #1
Идентификатор                            : 1
Формат                                   : MPEG Audio
Версия формата                           : Version 1
Профиль формата                          : Layer 3
Режим                                    : Joint stereo
Расширение режима                        : MS Stereo
Идентификатор кодека                     : 55
Идентификатор кодека/Подсказка           : MP3
Продолжительность                        : 22 м.
Вид битрейта                             : Постоянный
Битрейт                                  : 128 Кбит/сек
Каналы                                   : 2 канала
Частота                                  : 48,0 КГц
Метод сжатия                             : С потерями
Размер потока                            : 20,9 Мбайт (11%)
Выравнивание                             : Соединение по промежуткам
Продолжительность промежутка             : 24  мс. (0,60 видеокадр)
Время предзагрузки промежутка            : 192  мс.
Заголовок                                : Russian

Аудио #2
Идентификатор                            : 2
Формат                                   : MPEG Audio
Версия формата                           : Version 1
Профиль формата                          : Layer 3
Режим                                    : Joint stereo
Расширение режима                        : MS Stereo
Идентификатор кодека                     : 55
Идентификатор кодека/Подсказка           : MP3
Продолжительность                        : 22 м.
Вид битрейта                             : Переменный
Битрейт                                  : 136 Кбит/сек
Номинальный битрейт                      : 128 Кбит/сек
Каналы                                   : 2 канала
Частота                                  : 48,0 КГц
Метод сжатия                             : С потерями
Размер потока                            : 22,1 Мбайт (11%)
Выравнивание                             : Соединение по промежуткам
Продолжительность промежутка             : 24  мс. (0,60 видеокадр)
Время предзагрузки промежутка            : 62  мс.
Заголовок                                : English
Библиотека кодирования                   : LAME3.96r
Настройки программы                      : -m j -V 4 -q 3 -lowpass 17.5 --abr 128

Текст
Идентификатор                            : 3
Формат                                   : SubRip
Метод сжатия                             : Без потерь
Размер потока                            : 22,5 Кбайт (0%)

Код:

Формат                                   : AVI
Формат/Информация                        : Audio Video Interleave
Профиль формата                          : OpenDML
Настройки формата                        : rec
Размер файла                             : 192 Мбайт
Продолжительность                        : 22 м.
Режим общего битрейта                    : Переменный
Общий поток                              : 1217 Кбит/сек
Название фильма                          : Season 9, Episode 1: Shoeway to Heaven
Программа кодирования                    : AVI-Mux GUI 1.17.7, Aug  8 2006  20:59:17

Видео
Идентификатор                            : 0
Формат                                   : MPEG-4 Visual
Профиль формата                          : Advanced Simple@L5
Параметр BVOP формата                    : 1
Параметр QPel формата                    : Нет
Параметр GMC формата                     : Без точки перехода
Параметр матрицы формата                 : Default (H.263)
Режим смешивания                         : Сжатый битовый поток
Идентификатор кодека                     : XVID
Идентификатор кодека/Подсказка           : XviD
Продолжительность                        : 22 м.
Битрейт                                  : 940 Кбит/сек
Ширина                                   : 512 пикселей
Высота                                   : 384 пикселя
Соотношение сторон                       : 4:3
Частота кадров                           : 25,000 кадров/сек
Цветовое пространство                    : YUV
Субдискретизация насыщенности            : 4:2:0
Битовая глубина                          : 8 бит
Тип развёртки                            : Прогрессивная
Метод сжатия                             : С потерями
Бит/(Пиксели*Кадры)                      : 0.191
Размер потока                            : 149 Мбайт (77%)
Заголовок                                : Season 9, Episode 1: Shoeway to Heaven
Библиотека кодирования                   : XviD 1.1.2 (UTC 2006-11-01)

Аудио #1
Идентификатор                            : 1
Формат                                   : MPEG Audio
Версия формата                           : Version 1
Профиль формата                          : Layer 3
Режим                                    : Joint stereo
Расширение режима                        : MS Stereo
Идентификатор кодека                     : 55
Идентификатор кодека/Подсказка           : MP3
Продолжительность                        : 22 м.
Вид битрейта                             : Постоянный
Битрейт                                  : 128 Кбит/сек
Каналы                                   : 2 канала
Частота                                  : 48,0 КГц
Метод сжатия                             : С потерями
Размер потока                            : 20,2 Мбайт (11%)
Выравнивание                             : Соединение по промежуткам
Продолжительность промежутка             : 24  мс. (0,60 видеокадр)
Время предзагрузки промежутка            : 192  мс.
Заголовок                                : Russian

Аудио #2
Идентификатор                            : 2
Формат                                   : MPEG Audio
Версия формата                           : Version 1
Профиль формата                          : Layer 3
Режим                                    : Joint stereo
Расширение режима                        : MS Stereo
Идентификатор кодека                     : 55
Идентификатор кодека/Подсказка           : MP3
Продолжительность                        : 22 м.
Вид битрейта                             : Переменный
Битрейт                                  : 135 Кбит/сек
Номинальный битрейт                      : 128 Кбит/сек
Каналы                                   : 2 канала
Частота                                  : 48,0 КГц
Метод сжатия                             : С потерями
Размер потока                            : 21,3 Мбайт (11%)
Выравнивание                             : Соединение по промежуткам
Продолжительность промежутка             : 24  мс. (0,60 видеокадр)
Время предзагрузки промежутка            : 62  мс.
Заголовок                                : English
Библиотека кодирования                   : LAME3.96r
Настройки программы                      : -m j -V 4 -q 3 -lowpass 17.5 --abr 128

Текст
Идентификатор                            : 3
Формат                                   : SubRip
Метод сжатия                             : Без потерь
Размер потока                            : 22,9 Кбайт (0%)

Код:

Формат                                   : AVI
Формат/Информация                        : Audio Video Interleave
Профиль формата                          : OpenDML
Настройки формата                        : rec
Размер файла                             : 194 Мбайт
Продолжительность                        : 22 м.
Режим общего битрейта                    : Переменный
Общий поток                              : 1187 Кбит/сек
Название фильма                          : Season 10, Episode 1: Guess Who's Coming to Breakfast, Lunch and Dinner
Программа кодирования                    : AVI-Mux GUI 1.17.7, Aug  8 2006  20:59:17

Видео
Идентификатор                            : 0
Формат                                   : MPEG-4 Visual
Профиль формата                          : Advanced Simple@L5
Параметр BVOP формата                    : 1
Параметр QPel формата                    : Нет
Параметр GMC формата                     : Без точки перехода
Параметр матрицы формата                 : Default (H.263)
Режим смешивания                         : Сжатый битовый поток
Идентификатор кодека                     : XVID
Идентификатор кодека/Подсказка           : XviD
Продолжительность                        : 22 м.
Битрейт                                  : 908 Кбит/сек
Ширина                                   : 512 пикселей
Высота                                   : 384 пикселя
Соотношение сторон                       : 4:3
Частота кадров                           : 25,000 кадров/сек
Цветовое пространство                    : YUV
Субдискретизация насыщенности            : 4:2:0
Битовая глубина                          : 8 бит
Тип развёртки                            : Прогрессивная
Метод сжатия                             : С потерями
Бит/(Пиксели*Кадры)                      : 0.185
Размер потока                            : 148 Мбайт (76%)
Заголовок                                : Season 10, Episode 1: Guess Who's Coming to Breakfast, Lunch and Dinner
Библиотека кодирования                   : XviD 1.1.2 (UTC 2006-11-01)

Аудио #1
Идентификатор                            : 1
Формат                                   : MPEG Audio
Версия формата                           : Version 1
Профиль формата                          : Layer 3
Режим                                    : Joint stereo
Расширение режима                        : MS Stereo
Идентификатор кодека                     : 55
Идентификатор кодека/Подсказка           : MP3
Продолжительность                        : 22 м.
Вид битрейта                             : Постоянный
Битрейт                                  : 128 Кбит/сек
Каналы                                   : 2 канала
Частота                                  : 48,0 КГц
Метод сжатия                             : С потерями
Размер потока                            : 20,9 Мбайт (11%)
Выравнивание                             : Соединение по промежуткам
Продолжительность промежутка             : 24  мс. (0,60 видеокадр)
Время предзагрузки промежутка            : 192  мс.
Заголовок                                : Russian

Аудио #2
Идентификатор                            : 2
Формат                                   : MPEG Audio
Версия формата                           : Version 1
Профиль формата                          : Layer 3
Режим                                    : Joint stereo
Расширение режима                        : MS Stereo
Идентификатор кодека                     : 55
Идентификатор кодека/Подсказка           : MP3
Продолжительность                        : 22 м.
Вид битрейта                             : Переменный
Битрейт                                  : 136 Кбит/сек
Номинальный битрейт                      : 128 Кбит/сек
Каналы                                   : 2 канала
Частота                                  : 48,0 КГц
Метод сжатия                             : С потерями
Размер потока                            : 22,3 Мбайт (11%)
Выравнивание                             : Соединение по промежуткам
Продолжительность промежутка             : 24  мс. (0,60 видеокадр)
Время предзагрузки промежутка            : 61  мс.
Заголовок                                : English
Библиотека кодирования                   : LAME3.96r
Настройки программы                      : -m j -V 4 -q 3 -lowpass 17.5 --abr 128

Текст
Идентификатор                            : 3
Формат                                   : SubRip
Метод сжатия                             : Без потерь
Размер потока                            : 23,3 Кбайт (0%)

Код:

Формат                                   : AVI
Формат/Информация                        : Audio Video Interleave
Профиль формата                          : OpenDML
Настройки формата                        : rec
Размер файла                             : 195 Мбайт
Продолжительность                        : 21 м.
Режим общего битрейта                    : Переменный
Общий поток                              : 1265 Кбит/сек
Название фильма                          : Season 11, Episode 1: Twisted
Программа кодирования                    : AVI-Mux GUI 1.17.7, Aug  8 2006  20:59:17

Видео
Идентификатор                            : 0
Формат                                   : MPEG-4 Visual
Профиль формата                          : Advanced Simple@L5
Параметр BVOP формата                    : 1
Параметр QPel формата                    : Нет
Параметр GMC формата                     : Без точки перехода
Параметр матрицы формата                 : Default (H.263)
Режим смешивания                         : Сжатый битовый поток
Идентификатор кодека                     : XVID
Идентификатор кодека/Подсказка           : XviD
Продолжительность                        : 21 м.
Битрейт                                  : 987 Кбит/сек
Ширина                                   : 512 пикселей
Высота                                   : 368 пикселей
Соотношение сторон                       : 1,391
Частота кадров                           : 25,000 кадров/сек
Цветовое пространство                    : YUV
Субдискретизация насыщенности            : 4:2:0
Битовая глубина                          : 8 бит
Тип развёртки                            : Прогрессивная
Метод сжатия                             : С потерями
Бит/(Пиксели*Кадры)                      : 0.210
Размер потока                            : 152 Мбайт (78%)
Заголовок                                : Season 11, Episode 1: Twisted
Библиотека кодирования                   : XviD 1.1.2 (UTC 2006-11-01)

Аудио #1
Идентификатор                            : 1
Формат                                   : MPEG Audio
Версия формата                           : Version 1
Профиль формата                          : Layer 3
Режим                                    : Joint stereo
Расширение режима                        : MS Stereo
Идентификатор кодека                     : 55
Идентификатор кодека/Подсказка           : MP3
Продолжительность                        : 21 м.
Вид битрейта                             : Постоянный
Битрейт                                  : 128 Кбит/сек
Каналы                                   : 2 канала
Частота                                  : 48,0 КГц
Метод сжатия                             : С потерями
Размер потока                            : 19,7 Мбайт (10%)
Выравнивание                             : Соединение по промежуткам
Продолжительность промежутка             : 24  мс. (0,60 видеокадр)
Время предзагрузки промежутка            : 192  мс.
Заголовок                                : Russian

Аудио #2
Идентификатор                            : 2
Формат                                   : MPEG Audio
Версия формата                           : Version 1
Профиль формата                          : Layer 3
Режим                                    : Joint stereo
Расширение режима                        : MS Stereo
Идентификатор кодека                     : 55
Идентификатор кодека/Подсказка           : MP3
Продолжительность                        : 21 м.
Вид битрейта                             : Переменный
Битрейт                                  : 128 Кбит/сек
Каналы                                   : 2 канала
Частота                                  : 48,0 КГц
Метод сжатия                             : С потерями
Размер потока                            : 20,7 Мбайт (11%)
Выравнивание                             : Соединение по промежуткам
Продолжительность промежутка             : 24  мс. (0,60 видеокадр)
Время предзагрузки промежутка            : 62  мс.
Заголовок                                : English
Библиотека кодирования                   : LAME3.96r
Настройки программы                      : -m j -V 4 -q 3 -lowpass 17.5 --abr 128

Текст
Идентификатор                            : 3
Формат                                   : SubRip
Метод сжатия                             : Без потерь
Размер потока                            : 20,5 Кбайт (0%)

picpicpic

Этот торрент недоступен для скачивания без регистрации, однако доступен по публичной magnet-ссылке (источники с публичных трекеров). Перед использованием ссылки прочтите, пожалуйста Пользовательское соглашение, а также как можно дольше оставайтесь на раздаче! Для того, чтобы скачать сам торрент-файл (который видит больше источников), а также для того, чтобы поблагодарить релизера, вам необходимо зарегистрироваться. Если регистрироваться лень - вы можете также попробовать скачать релиз по нашим партнерским ссылкам ниже.

[underverse.su].t45486.torrent
Трекер: Зарегистрирован   [ 25.10.2014 08:28 ]  

Статус: % на проверке (by Ведьмочка at 25.10.2014 13:12)
Поблагодарили: пока никто не поблагодарил...
Тип торрента: публичный - доступные источники с открытых трекеров: 
Размер: 51,72 GB (занимает 11,81 DVDR, для записи нужно 12 болванок DVDR/RW)
 
 


Последний раз редактировалось: MR.ORION (26.10.2014 18:29), всего редактировалось 22 раз(а)

MR.ORION Пол:Муж

25-Окт-2014 08:39

Если меня нет на раздаче, напишите ЛС или в тему, я встану на раздачу :)

freedman 

02-Ноя-2014 14:30

а мне можно скачать? :oops:

viktor.r-79 Пол:Муж

03-Ноя-2014 16:55

Качай кто тебе не дает :)

MR.ORION Пол:Муж

09-Ноя-2014 09:22

встал на раздачу

Яндекс.Метрика powered by Sphinx


В Н И М А Н И Е
Сайт не распространяет и не хранит электронные версии произведений, а лишь бесплатно и без коммерческой выгоды (не требуя взамен платы,
SMS и т.д.) предоставляет доступ к создаваемому пользователями каталогу ссылок на торрент-файлы, которые содержат только списки хеш-сумм.
Убедительная просьба с жалобами обращаться напрямую к пользователю, разместившему торрент файл.

Вверх